<?xml version="1.0" standalone="no"?>
<!DOCTYPE svg PUBLIC "-//W3C//DTD SVG 1.1//EN" "http://www.w3.org/Graphics/SVG/1.1/DTD/svg11.dtd" >
<svg xmlns="http://www.w3.org/2000/svg" xmlns:xlink="http://www.w3.org/1999/xlink" version="1.1">
<metadata>
Created by FontForge 20150102 at Tue Feb 17 15:25:22 2015
 By uniteet7
Copyright (c) 2011 Angel Koziupa (sudtipos@sudtipos.com),Copyright (c) 2011 Alejandro Paul (sudtipos@sudtipos.com),with Reserved Font Name "Bubblegum Sans"
</metadata>
<defs>
<font id="BubblegumSans-Regular" horiz-adv-x="484" >
  <font-face 
    font-family="Bubblegum Sans"
    font-weight="400"
    font-stretch="normal"
    units-per-em="1000"
    panose-1="2 0 5 6 0 0 0 2 0 4"
    ascent="800"
    descent="-200"
    x-height="442"
    cap-height="667"
    bbox="-149 -311 962 852"
    underline-thickness="50"
    underline-position="-50"
    unicode-range="U+0020-FB02"
  />
<missing-glyph horiz-adv-x="200" 
 />
    <glyph glyph-name=".notdef" horiz-adv-x="200" 
 />
    <glyph glyph-name=".null" horiz-adv-x="0" 
 />
    <glyph glyph-name="nonmarkingreturn" horiz-adv-x="333" 
 />
    <glyph glyph-name="space" unicode=" " horiz-adv-x="200" 
 />
    <glyph glyph-name="exclam" unicode="!" horiz-adv-x="215" 
d="M105 200l-41 5q0 95 -8.5 207t-17.5 176l-8 65q9 9 60 12l16 1q54 0 75 -14q3 -2 3 -3.5t-2.5 -13t-5.5 -27t-6 -33.5q-7 -42 -7 -60t-3 -84q-11 -189 -14 -224q-20 -7 -41 -7zM174 63q0 -28 -19.5 -47.5t-47.5 -19.5t-47.5 19.5t-19.5 47.5t19.5 47.5t47.5 19.5
t47.5 -19.5t19.5 -47.5z" />
    <glyph glyph-name="quotedbl" unicode="&#x22;" horiz-adv-x="336" 
d="M281 498q-14 -7 -30.5 -7t-30.5 7q0 40 -18 133l-6 31q18 13 55 13t55 -11q-25 -124 -25 -166zM115 498q-14 -7 -30.5 -7t-30.5 7q0 40 -18 133l-6 31q18 13 55 13t55 -11q-25 -124 -25 -166z" />
    <glyph glyph-name="numbersign" unicode="#" horiz-adv-x="540" 
d="M219 380v-103h103v103h-103zM399 98q-11 -9 -39 -9t-38 11v100h-103v-102q-11 -9 -39 -9t-38 11v100h-103q-9 11 -9 38.5t11 38.5h101v103h-103q-9 11 -9 38.5t11 38.5h101v104q11 8 38.5 8t38.5 -10v-102h103v104q11 8 38.5 8t38.5 -10v-102h103q8 -11 8 -38t-9 -39
h-102v-103h103q8 -11 8 -38t-9 -39h-102v-102z" />
    <glyph glyph-name="dollar" unicode="$" horiz-adv-x="526" 
d="M412 565l-28 1q-42 0 -78 -5l-1 -166q76 -27 127 -61q64 -44 64 -117.5t-51.5 -130t-139.5 -84.5v-60q-21 -21 -57 -21h-6v66q-47 -7 -86 -7q-77 0 -113 8q-13 12 -13 146q0 54 3 63.5t33 22t61 12.5q3 -113 28 -137q10 -8 38 -9t49 2v218q-125 48 -156 80
q-42 41 -42 92.5t50 100.5t148 71v44q23 22 58 22h6v-56q42 5 81.5 5t42.5 -3t3 -13q0 -64 -21 -84zM376 207q0 42 -71 74v-176q71 34 71 102zM180 480q0 -33 62 -60v126q-62 -21 -62 -66z" />
    <glyph glyph-name="percent" unicode="%" horiz-adv-x="619" 
d="M555 250q34 -50 34 -119.5t-38.5 -103.5t-90.5 -34q-128 0 -128 146q0 61 34 111t94.5 50t94.5 -50zM252 617q34 -50 34 -119t-38.5 -103.5t-89.5 -34.5q-128 0 -128 146q0 62 33.5 111.5t94 49.5t94.5 -50zM59 1l423 665q10 2 20 2q20 0 54 -19l-423 -665q-10 -2 -19 -2
t-24 4.5t-31 14.5zM460 51q29 0 45 22t16 66t-17.5 72.5t-43 28.5t-43 -28.5t-17.5 -74.5q0 -86 60 -86zM158 418q60 0 60 86q0 46 -17.5 74.5t-42.5 28.5t-42.5 -28.5t-17.5 -74.5q0 -86 60 -86z" />
    <glyph glyph-name="ampersand" unicode="&#x26;" horiz-adv-x="619" 
d="M486 325l-1 14q28 0 55 -9.5t40 -18.5l14 -9q0 -136 -86 -225q28 -39 63 -67q1 -1 1 -2q0 -10 -39.5 -32.5t-68.5 -22.5q-34 40 -48 59q-64 -37 -142 -37q-104 0 -169 52.5t-65 154.5q0 153 148 227q-27 71 -27 117q0 72 59 109.5t136 37.5q51 -3 55 -7q15 -29 15 -78
q0 -9 -1 -13q-28 4 -56 4t-56 -15t-28 -57t53 -154t106 -188q21 27 31.5 74.5t10.5 85.5zM186.5 109.5q29.5 -33.5 85.5 -33.5t86 19q-73 110 -122 216q-28 -9 -52 -37q-27 -33 -27 -82t29.5 -82.5z" />
    <glyph glyph-name="quotesingle" unicode="'" horiz-adv-x="170" 
d="M115 498q-14 -7 -30.5 -7t-30.5 7q0 40 -18 133l-6 31q18 13 55 13t55 -11q-25 -124 -25 -166z" />
    <glyph glyph-name="parenleft" unicode="(" horiz-adv-x="290" 
d="M135 324q0 -87 18.5 -165.5t46.5 -130.5q50 -90 79 -119q2 -3 -3 -5q-12 -2 -46 -2t-41 2.5t-22.5 19t-39 53t-45 83t-37 117.5t-15.5 147.5t15.5 147t37 117.5t45 83.5t39 53t22.5 19t41 2.5t46 -2q5 -2 3 -5q-34 -36 -70.5 -104t-55 -146.5t-18.5 -165.5z" />
    <glyph glyph-name="parenright" unicode=")" horiz-adv-x="290" 
d="M155 324q0 87 -18.5 165t-46.5 131q-48 88 -78 120q-3 3 2 5q12 2 46.5 2t41.5 -3t22 -19t38.5 -52.5t45 -83.5t37 -117.5t15.5 -147t-15.5 -147.5t-37 -117.5t-45 -83t-38.5 -52.5t-22 -19t-41.5 -3t-46.5 2q-7 0 -2 5q35 39 70.5 105.5t54 144.5t18.5 165z" />
    <glyph glyph-name="asterisk" unicode="*" horiz-adv-x="249" 
d="M144 547l3 -70q-6 -6 -22 -6l-24 3l5 73l-61 -38q-7 1 -16 17l-9 22l66 33l-64 33q0 12 6 22l15 19l63 -41l-5 73q7 5 27 5l19 -3l-3 -74l60 39q8 -3 18 -21l7 -18l-66 -34l64 -32q0 -10 -9 -26l-12 -15z" />
    <glyph glyph-name="plus" unicode="+" horiz-adv-x="540" 
d="M39 292q-9 10 -9 38t11 39h190v193q12 8 39 8t39 -9v-192h193q8 -11 8 -39t-10 -38h-191v-192q-11 -9 -39 -9t-39 11v190h-192z" />
    <glyph glyph-name="comma" unicode="," horiz-adv-x="181" 
d="M146 43q0 -64 -25 -99.5t-47 -40.5q-30 0 -42 23q45 32 50 73q-55 0 -55 52q0 28 16.5 47.5t45 19.5t43 -22.5t14.5 -52.5z" />
    <glyph glyph-name="hyphen" unicode="-" horiz-adv-x="574" 
d="M39 156q-9 10 -9 38.5t11 38.5h495q8 -11 8 -39t-9 -38h-496z" />
    <glyph glyph-name="period" unicode="." horiz-adv-x="187" 
d="M152 55q0 -24 -18.5 -42.5t-42.5 -18.5t-40 16.5t-16 42t17.5 43t41.5 17.5t41 -17t17 -41z" />
    <glyph glyph-name="slash" unicode="/" horiz-adv-x="560" 
d="M0 -41l470 744q15 3 30 3q30 0 60 -10l-473 -744q-14 -3 -28 -3q-29 0 -59 10z" />
    <glyph glyph-name="zero" unicode="0" horiz-adv-x="629" 
d="M581 436q18 -62 18 -138.5t-26 -143t-69 -100.5q-84 -67 -189 -67q-143 0 -222 101q-28 35 -45.5 93t-17.5 137t30 158.5t97 136.5t158 57q69 0 125 -33t89.5 -86t51.5 -115zM315 89q73 0 112.5 55t39.5 166t-43.5 183t-108.5 72t-108.5 -72t-43.5 -183t39.5 -166
t112.5 -55z" />
    <glyph glyph-name="one" unicode="1" horiz-adv-x="335" 
d="M247 603l-4 -386q0 -105 5 -110q17 1 33.5 1t18.5 -2q5 -21 5 -61t-5 -40h-25q-94 0 -168 -11l-27 -4q-5 4 -5 49.5t6 51.5l41 7q-1 14 -1 52l4 282q0 89 -7 96q-1 1 -9 1t-29.5 -3.5t-39 -7.5t-19 -4t-1.5 38t10 48t100.5 43.5t110.5 33.5q3 0 3 -1q3 -3 3 -73z" />
    <glyph glyph-name="two" unicode="2" horiz-adv-x="527" 
d="M329 -8l-181 7q-57 0 -84 -2t-29 -2q-5 4 -5 52.5t8 59.5q79 74 158 162q154 171 154 234t-94 63q-76 0 -104 -54q-20 -37 -28 -81q-2 -2 -15.5 -2t-38 5t-28.5 9t-4 38.5t4 90t8 59t34 11.5q84 23 184.5 23t161 -41.5t60.5 -106.5q0 -71 -94 -189q-74 -93 -161 -187
l-28 -31q-3 -7 57 -7q164 0 230 21q3 0 3 -2q0 -26 -9.5 -66.5t-21 -52t-137.5 -11.5z" />
    <glyph glyph-name="three" unicode="3" horiz-adv-x="543" 
d="M170 423q12 -2 35.5 -2t51 9.5t39.5 23.5q22 24 22 46q0 34 -34.5 51t-73.5 17q-67 0 -114 -14l-14 -5q-7 0 -7 24t5 53t11 35q47 14 108.5 14t103 -7t79.5 -23.5t60 -48.5t22 -79t-32.5 -81t-67.5 -46q-5 -2 0.5 -4t15.5 -5.5t36 -17.5t45.5 -32.5t35.5 -52t16 -82.5
t-28.5 -93t-75.5 -69q-94 -50 -215 -50q-87 0 -135 15l-16 5q-4 5 -8.5 57t-4.5 87.5t1 45.5q1 5 24.5 12.5t42.5 7.5t19 -2q0 -53 26 -86.5t91 -33.5t102.5 33.5t37.5 75t-24 65.5t-64 34q-65 18 -142 18q-4 0 -4 2q0 45 21 88q7 15 9 15z" />
    <glyph glyph-name="four" unicode="4" horiz-adv-x="572" 
d="M480 160q0 -116 11 -166q0 -10 -43 -21t-74 -11l-27 3q-4 6 -4 41t4 151q-57 -3 -178.5 -3t-125.5 4q-9 9 -15 29.5t-7 36.5l-1 15q0 27 120 209t184 252q7 7 39 11t63 4t31 -9q0 -2 -1 -3q-62 -71 -62 -79q90 -2 90 -15q-5 -151 -5 -305v-38q50 0 61.5 2.5t11.5 -3.5
q0 -28 -14.5 -61t-22.5 -41q-1 -1 -35 -3zM243 263l108 1q7 168 7 235.5t-3 67.5q-22 -22 -104 -147.5t-82 -151.5q0 -5 74 -5z" />
    <glyph glyph-name="five" unicode="5" horiz-adv-x="518" 
d="M194 103l13 -1q43 0 86 22q25 12 40.5 39.5t15.5 62t-15 56.5t-37 34.5t-53 19.5q-53 13 -116 13l-77 -4l-2 42q0 108 11.5 187.5t13.5 81.5t30.5 2t124.5 5t146.5 5t55.5 -5q10 -14 10 -57t-5 -48q-32 3 -70.5 3t-79.5 -1q-89 -4 -95 -10t-6 -48.5t2 -43.5
q101 0 187 -46q33 -17 57.5 -40t40.5 -60t16 -83q0 -114 -99 -178t-262 -64q-68 0 -80 8q-7 7 -7 102t6.5 101.5t43 17.5t57.5 11q0 -108 47 -124z" />
    <glyph glyph-name="six" unicode="6" horiz-adv-x="559" 
d="M162 263q0 -73 34.5 -114t94.5 -41q44 0 76 29t32 75q0 102 -158 102q-41 0 -77 -11q-2 -24 -2 -40zM457 571q-28 2 -37 2q-81 0 -143 -45t-86 -112q30 7 75 7q123 0 193 -54t70 -141q0 -60 -22.5 -106.5t-58.5 -73.5q-74 -53 -163 -53q-61 0 -108.5 21t-74.5 51.5
t-44 70.5q-28 66 -28 127.5t14 117t45 109.5t75 96t109 67.5t142 25.5q16 0 18 -2q26 -34 26 -102q0 -6 -2 -6z" />
    <glyph glyph-name="seven" unicode="7" horiz-adv-x="496" 
d="M256 -27q0 -7 -36 -10l-11 -1q-72 0 -95 16q-9 5 -9 9q0 71 23 155t53 150t67 130q48 84 83 133q0 10 -75.5 10t-101.5 -26q-25 -23 -34 -73l-3 -16q-5 -5 -41.5 7t-43.5 25q-3 5 -1.5 88t7.5 89t81 6t116.5 -0.5t76.5 -0.5q97 -2 132 7q11 3 29 -32t18 -54
q-17 -12 -54.5 -66t-79.5 -131.5t-73 -179.5t-31 -189v-9q0 -27 3 -37z" />
    <glyph glyph-name="eight" unicode="8" horiz-adv-x="582" 
d="M383.5 128q37.5 33 37.5 66.5t-31 63t-61.5 42.5t-39.5 13t-33.5 -15.5t-51.5 -48.5t-27 -66t29 -60.5t84.5 -27.5t93 33zM360.5 459.5q37.5 31.5 37.5 55.5t-24.5 41.5t-63.5 17.5t-70.5 -21t-31.5 -50t42 -52t57.5 -23t53 31.5zM482.5 52.5q-79.5 -64.5 -192.5 -64.5
t-186.5 52t-73.5 130q0 63 53 124q27 31 77 62l9 5v4q-105 52 -105 128q0 46 26 83.5t66 58.5q80 43 160 43q120 0 184 -70q33 -36 33 -80t-37.5 -86.5t-80.5 -64.5q-4 -3 -1.5 -4.5t19.5 -10t30.5 -16.5t33 -23.5t32.5 -30.5q33 -40 33 -85q0 -90 -79.5 -154.5z" />
    <glyph glyph-name="nine" unicode="9" horiz-adv-x="558" 
d="M398 402q0 73 -34 114.5t-96 41.5q-45 0 -76.5 -26t-31.5 -71q0 -70 72 -89q33 -8 86 -8t78 13q2 7 2 25zM106 95l33 -2q83 0 144 46t90 125q-35 -8 -89 -8q-123 0 -188.5 50.5t-65.5 129.5t39 133q73 101 204 101q63 0 111 -21t74.5 -51.5t43.5 -70.5q26 -64 26 -133.5
t-23.5 -139t-68 -131t-121.5 -100t-172 -38.5q-15 0 -17 2q-26 32 -26 99q0 9 6 9z" />
    <glyph glyph-name="colon" unicode=":" horiz-adv-x="187" 
d="M152 369q0 -24 -18.5 -42.5t-42.5 -18.5t-40 16.5t-16 41.5t17.5 43t41.5 18t41 -17t17 -41zM152 55q0 -24 -18.5 -42.5t-42.5 -18.5t-40 16.5t-16 42t17.5 43t41.5 17.5t41 -17t17 -41z" />
    <glyph glyph-name="semicolon" unicode=";" horiz-adv-x="181" 
d="M142 369q0 -24 -18 -42.5t-42 -18.5t-40.5 16.5t-16.5 41.5t18 43t41.5 18t40.5 -17t17 -41zM146 43q0 30 -14.5 52.5t-43 22.5t-45 -19.5t-16.5 -47.5q0 -52 55 -52q-5 -41 -50 -73q12 -23 42 -23q22 5 47 40.5t25 99.5z" />
    <glyph glyph-name="less" unicode="&#x3c;" horiz-adv-x="481" 
d="M448 467l-1 -18q-13 -4 -119 -55q-167 -79 -167 -81.5t4 -3.5q283 -108 296 -121v-4q0 -46 -29 -73q-89 37 -318 119l-79 29q-5 18 -4 45.5t12 38.5q303 166 378 186q27 -11 27 -62z" />
    <glyph glyph-name="equal" unicode="=" horiz-adv-x="525" 
d="M39 200q-9 11 -9 39t11 38h446q8 -11 8 -38.5t-10 -38.5h-446zM39 380q-9 11 -9 39t11 38h446q8 -11 8 -38.5t-10 -38.5h-446z" />
    <glyph glyph-name="greater" unicode="&#x3e;" horiz-adv-x="481" 
d="M30 188q10 10 225 94l71 27q4 1 4 3q-15 10 -144 71.5t-142 65.5q-5 67 26 80q33 -9 127.5 -55.5t172.5 -88.5l78 -42q9 -9 12 -41l1 -10l-5 -33q-305 -110 -397 -148q-29 27 -29 73v4z" />
    <glyph glyph-name="question" unicode="?" horiz-adv-x="396" 
d="M113 655q137 0 195 -46.5t58 -114.5q0 -86 -74 -140q-28 -21 -68 -38l-16 -7q-7 -3 -13.5 -41.5t-6.5 -55.5q-5 -5 -28.5 -11.5t-39 -6.5t-23.5 2q-11 18 -11 78t5 77q158 38 158 128q0 78 -144 78q-51 0 -74 -10q-6 10 -6 42t9 54q27 12 79 12zM65 57q0 28 19.5 47.5
t47.5 19.5t47.5 -19.5t19.5 -47.5t-19.5 -47.5t-47.5 -19.5t-47.5 19.5t-19.5 47.5z" />
    <glyph glyph-name="at" unicode="@" horiz-adv-x="992" 
d="M517 -113q1 -3 1 -19t-10.5 -49.5t-19.5 -41.5q-3 -5 -32 -7q-91 0 -164.5 26t-121 68.5t-80.5 99.5q-60 106 -60 240q0 125 70 242q37 64 90.5 114t137 81.5t184 31.5t180.5 -29t129.5 -74t82.5 -104q58 -108 58 -232q0 -118 -61 -222q-30 -52 -82 -84.5t-117 -32.5
q-55 0 -98 37q-38 34 -42 103q0 2 -1 2t-3 -2q-53 -42 -124 -42t-109.5 34t-38.5 90t24.5 94.5t58 58.5t72.5 33q60 20 97 20l1 1q0 49 -124 49q-49 0 -73 -4h-1q0 20 13 50.5t23 40.5q0 3 24 5t45 2q115 0 169 -44.5t54 -138.5l-1 -26q-1 -76 -1 -126t2 -70q7 -60 57 -60
q34 0 59.5 24t38.5 62q24 73 24 138q0 175 -94.5 263.5t-242.5 88.5q-95 0 -177 -43t-135 -130t-53 -202q0 -156 102 -248q36 -32 92 -52t108 -20t69 4zM424 109q15 -14 39.5 -14t42 5t34.5 24t17 49v38q0 22 -1 22q-40 0 -76 -13q-71 -27 -71 -76q0 -21 15 -35z" />
    <glyph glyph-name="A" unicode="A" horiz-adv-x="616" 
d="M385 224q-14 1 -86 1t-84 -4q-53 -174 -60 -251q0 -1 -24.5 -1t-50.5 3q-55 8 -55 14q0 40 71 233q-13 11 -30 45.5t-17 57.5q0 1 83 4q82 238 93 251q4 3 36 9.5t41 6.5l-2 13q-2 14 -4.5 30.5t-2.5 21.5q0 3 17 12q49 24 101 24q10 -59 26.5 -150.5t64.5 -279.5
t92 -262l7 -12q0 -5 -19 -17t-50 -23t-57 -11q-9 0 -43.5 113.5t-46.5 171.5zM361 327q-34 144 -37 161t-5 17t-5 -4q-9 -17 -33.5 -82t-31.5 -90q111 0 112 -2z" />
    <glyph glyph-name="B" unicode="B" horiz-adv-x="579" 
d="M223 68q67 0 127 39t60 92q0 38 -30 63q-52 42 -145 42q-23 0 -24.5 -1t-1.5 -93t9 -141q2 -1 5 -1zM345.5 457.5q18.5 21.5 18.5 45t-14 37.5t-35 21t-40.5 10t-37.5 3t-19.5 -1.5t-4 -82t-2.5 -85.5q1 -1 10.5 -1t31.5 5.5t48 16t44.5 32zM84 140l5 382q0 40 -2 42
q-11 11 -29 48.5t-18 48.5l1 3q6 5 63.5 9t114 4t103.5 -7t91.5 -22t71.5 -44.5t27 -66t-15.5 -66t-38.5 -49.5q-35 -30 -68 -46q-2 -2 -2 -3q1 -1 14.5 -5t26 -9.5t30.5 -14.5t33 -21.5t28 -28.5q29 -34 29 -92.5t-36 -109.5t-96 -80q-120 -58 -273 -58l-51 3q-3 4 -6 72.5
t-3 110.5z" />
    <glyph glyph-name="C" unicode="C" horiz-adv-x="600" 
d="M331 -31q-146 0 -221 84t-75 217q0 113 50 210q29 57 73 100t119 71t170 28q32 0 57 -6t25 -8q0 -48 -6.5 -109.5t-7.5 -62.5q-5 -5 -41.5 -16t-54.5 -11v6q0 45 -13 63t-45 18q-71 0 -132 -74.5t-61 -204.5q0 -69 34 -124q18 -29 52.5 -47t81.5 -18q94 0 183 87
q4 0 16.5 -12.5t24.5 -33.5q25 -40 25 -49t-31 -33.5t-94 -49.5t-129 -25z" />
    <glyph glyph-name="D" unicode="D" horiz-adv-x="625" 
d="M442 249.5q20 49.5 20 105.5t-20 95.5t-47 60t-62 33.5q-54 20 -103 20q-13 0 -13 -1q-7 -7 -7 -236t7 -236q2 -2 14.5 -2t38 7t60 26.5t63.5 48.5t49 78.5zM83 152l3 395q-11 17 -28 60.5t-17 52t1 9.5q10 10 118 10q208 0 321.5 -87t113.5 -233q0 -72 -23 -132.5
t-61.5 -102t-86 -73t-100.5 -49.5q-104 -34 -189 -34q-40 0 -46 6t-6 178z" />
    <glyph glyph-name="E" unicode="E" horiz-adv-x="530" 
d="M93 391l1 108q0 43 -2 47q-11 11 -28.5 53t-17.5 54q11 11 351 11q84 0 84 -4q0 -21 -9.5 -46t-20 -40t-15 -13.5t-41 1.5t-101.5 -4.5t-71 -10.5t-6 -110l1 -42q40 1 118 1t78 -3q0 -36 -24 -82q-9 -16 -11 -15q-26 0 -89 -4.5t-73 -10.5q-1 -1 -1 -84t5 -88
q16 -16 172 -16q63 0 85 3.5t22 2.5q0 -24 -16 -57t-34 -50q-10 -10 -179.5 -10t-175.5 8q-6 5 -6 96.5t2 193.5q-18 16 -34.5 50t-16.5 58q0 1 53 3z" />
    <glyph glyph-name="F" unicode="F" horiz-adv-x="507" 
d="M122 -33l-31 3q-2 10 -2 136.5t1 177.5q-17 16 -33.5 49.5t-16.5 57.5q0 1 52 3q1 42 1 97t-1 56q-11 11 -28.5 52.5t-17.5 53.5q11 11 347 11q84 0 84 -4q0 -21 -9.5 -46t-20 -39.5t-13.5 -13.5t-36 1t-102 -4.5t-75 -10t-6 -108.5l1 -42q94 2 144 2t50 -3
q0 -39 -24 -82q-8 -15 -10 -15h-10q-32 0 -89 -5t-60 -8t-3 -125t13 -166q0 -13 -38.5 -20.5t-66.5 -7.5z" />
    <glyph glyph-name="G" unicode="G" horiz-adv-x="631" 
d="M351 282l-61 -3q-4 0 -4 13t9 44t23 45t236 14q57 0 57 -5q0 -23 -12.5 -62.5t-21.5 -52.5q-1 -269 -6.5 -279t-36.5 -22.5t-52.5 -12.5t-21.5 3q0 54 -5 65l-2 2l-3 -2q-59 -59 -154 -59q-130 0 -195.5 84t-65.5 217q0 112 41 203q26 57 66.5 99t112 70t165.5 28
q21 0 58 -5t39.5 -8t2.5 -22t-5 -52t-11 -39q-31 16 -105 16q-106 0 -169 -71t-63 -208q0 -88 36 -141t101 -53t105.5 32t40.5 54v32q0 61 -6 67q-7 9 -93 9z" />
    <glyph glyph-name="H" unicode="H" horiz-adv-x="628" 
d="M211 392l133 1q74 0 74 -2q0 131 4 191t4 62t14.5 10t40.5 15.5t44.5 7.5t18.5 -4q-11 -147 -11 -313.5t10 -247.5t44 -115q0 -2 -9.5 -10t-45 -19t-66.5 -11l-12 2q-19 19 -26.5 78.5t-8.5 250.5q-17 1 -108.5 1t-100.5 -3q-1 -28 -1 -123.5t8 -159.5q0 -11 -32 -18.5
t-59.5 -7.5t-33 5.5t-5.5 183.5v118q-13 12 -30 46t-17 56q0 3 49 3q1 71 1 163v21q-26 48 -26 95q0 4 1 5q6 1 11 1h22.5t49.5 -6.5t51 -14.5t19 -13q-7 -49 -7 -228v-20z" />
    <glyph glyph-name="I" unicode="I" horiz-adv-x="307" 
d="M258 89q4 0 4 -49.5t-6 -49.5q-145 0 -208 -14q-3 0 -3 44t7 53q12 6 39 6q-2 34 -2 242.5t5 238.5h-2q-27 0 -45 -6q-2 0 -2 45.5t6 51.5t80 11t124 5q3 0 3 -16l-3 -74q0 -4 -3 -4q-34 0 -36 -1.5t-3 -41.5q-4 -158 -4 -273.5t8 -168.5q13 1 41 1z" />
    <glyph glyph-name="J" unicode="J" horiz-adv-x="506" 
d="M450 573l2 -191q0 -201 -10 -242q-20 -81 -78 -122.5t-137 -41.5q-34 0 -61.5 6t-37.5 12l-10 7q-35 -27 -83 -27q-10 0 -11 1l-4 51q0 133 11 192l4 22q6 8 37 17.5t55 9.5q0 -110 26 -147.5t79 -37.5q95 0 95 177l1 157q0 122 -11 133q-20 20 -83 20h-4q-4 2 -4 20
t5 37t8.5 22.5t31.5 9.5q84 16 191 16q14 0 14 -2q0 -24 -13 -61t-13 -38z" />
    <glyph glyph-name="K" unicode="K" horiz-adv-x="568" 
d="M65 20l11 467q0 71 -5 78.5t-18 38t-13 39.5q0 4 20 11q54 20 95.5 20t43.5 -2.5t2 -39t-5 -186.5q0 -6 2 -6t5 4q56 74 135 160.5t95.5 86.5t42.5 -11t43.5 -23.5t17.5 -16.5v-1q-39 -25 -87 -69t-78 -77t-30 -38q0 -37 81.5 -215.5t133.5 -231.5q1 -1 -4.5 -6.5
t-17.5 -13t-27 -14.5q-35 -18 -74 -18q-36 36 -80 134.5t-72.5 178.5t-30.5 80q-5 0 -31.5 -41.5t-26.5 -49.5v-65q0 -172 6 -201q1 -3 -11 -9q-34 -17 -86 -17l-34 5q-3 3 -3 49z" />
    <glyph glyph-name="L" unicode="L" horiz-adv-x="547" 
d="M206 625l-6 -412q0 -77 3 -114q16 -4 51.5 -4t61 6t43 21.5t28.5 29t19 40.5q12 36 24 95q0 1 14.5 1t46 -13.5t31.5 -20.5q0 -77 -8 -174q-8 -108 -19.5 -108t-44.5 8.5t-50 15.5q-90 -15 -233 -16l-50 -1l-40 5q-4 4 -4 88l4 383q0 117 -5.5 124.5t-18.5 38t-13 39.5
q0 4 22 11q55 20 97 20t44.5 -3t2.5 -60z" />
    <glyph glyph-name="M" unicode="M" horiz-adv-x="729" 
d="M77 -41q-22 0 -36 6q0 168 29 479l9 103q-14 17 -26.5 52t-12.5 49l1 3q3 4 50 7t103.5 3t61.5 -5t48 -125.5t64 -186.5q2 -5 5 -5t10 21.5t58 150t68 145.5q9 9 97 9t88 -5q0 -17 -13.5 -59t-22.5 -59q35 -317 35 -561q0 -10 -40.5 -18.5t-66.5 -8.5t-26 4q3 41 3 132.5
t-5 217.5q-5 157 -12 157l-6 -6q-20 -37 -51.5 -125t-52.5 -158l-21 -69q-5 -11 -29.5 -11t-40 3t-16.5 6q-3 11 -62 175.5t-68 175.5q-3 6 -5 6t-3 -7q-18 -91 -18 -267.5t5 -204.5q-25 -24 -101 -24z" />
    <glyph glyph-name="N" unicode="N" horiz-adv-x="613" 
d="M100 -30q-20 0 -36 6v30q0 153 10 444l4 97q-13 17 -25.5 53.5t-12.5 45t2 10.5t50.5 5.5t100 3.5t57.5 -5q177 -396 180.5 -404t5.5 -8l4 7v28q0 85 -5.5 212t-11.5 158q14 13 51.5 22.5t68 9.5t30.5 -5q0 -20 -7 -47t-7 -28q-7 -45 -7 -140.5t0.5 -137.5t1 -80.5
t1.5 -76t1 -68.5q2 -66 2 -92l1 -14q0 -3 -13 -8q-39 -16 -105 -16l-37 4q-40 113 -117 285t-86 185.5t-11 13.5l-3 -7q-4 -28 -4 -120.5t4.5 -201.5t10.5 -137q-27 -24 -98 -24z" />
    <glyph glyph-name="O" unicode="O" horiz-adv-x="664" 
d="M322 -30q-149 0 -220.5 86t-71.5 216q0 63 15 118t28 78t21 27.5t63 4.5h19q0 50 19.5 87t50.5 55q58 33 110 33q278 0 278 -350q0 -109 -37 -194q-21 -48 -55 -82.5t-90.5 -56.5t-129.5 -22zM505 333q0 235 -140 235q-40 0 -61.5 -23t-21.5 -58.5t22.5 -83.5t45.5 -76
l22 -28q0 -12 -37 -22.5t-59 -10.5q-5 0 -20.5 19t-36 58.5t-29.5 83.5q-15 -15 -24 -61t-9 -89q0 -84 47 -143.5t119 -59.5q182 0 182 259z" />
    <glyph glyph-name="P" unicode="P" horiz-adv-x="575" 
d="M199 339q224 20 224 143q0 40 -41.5 62.5t-105.5 22.5l-72 -6q-5 -36 -5 -222zM165.5 -23.5q-32.5 -6.5 -55.5 -6.5t-37 6l6 577q-14 16 -26.5 53t-12.5 45.5t2.5 11t64 6t124 3.5t111.5 -7t100.5 -25.5t82 -57t30.5 -98.5t-36.5 -110t-88.5 -76q-108 -55 -194 -66
l-37 -4q4 -204 10 -234q-11 -11 -43.5 -17.5z" />
    <glyph glyph-name="Q" unicode="Q" horiz-adv-x="664" 
d="M544 -52q-12 -19 -43.5 -32t-54.5 -13h-4q0 24 -14 67l-5 14q-44 -12 -101 -12q-149 0 -220.5 86t-71.5 216q0 63 15 118t28 78.5t22 28t43 4.5t38 -1q0 50 19.5 86.5t49.5 54.5q57 34 111 34q278 0 278 -350q0 -208 -117 -298q27 -55 27 -81zM461 142q44 64 44 193
q0 236 -141 236q-39 0 -60.5 -23.5t-21.5 -59t22.5 -83.5t45.5 -76l22 -28q0 -12 -37 -22.5t-59 -10.5q-5 0 -21 19t-36 58.5t-29 83.5q-16 -16 -24.5 -61.5t-8.5 -88.5q0 -84 47 -143.5t119 -59.5q32 0 59 8q-33 67 -47 86q32 26 87 26q9 -5 32 -42z" />
    <glyph glyph-name="R" unicode="R" horiz-adv-x="587" 
d="M198 339q118 11 173.5 55.5t55.5 88t-43 64t-109 20.5q-35 0 -71 -6q-6 -43 -6 -222zM165 -23.5q-33 -6.5 -55 -6.5t-38 6l6 577q-13 16 -25.5 53t-12.5 45.5t2 11t63.5 6t124.5 3.5t112 -7t102 -24.5t84 -55.5t31 -97.5t-42 -110.5t-114 -86q0 -16 63 -143.5t100 -164.5
q1 -1 1 -3.5t-16 -9.5q-44 -21 -95 -21l-25 2q-22 22 -76.5 146t-60.5 152q-12 -7 -95 -21q2 -201 10 -234q-11 -11 -44 -17.5z" />
    <glyph glyph-name="S" unicode="S" horiz-adv-x="519" 
d="M413 571q-16 2 -36.5 2t-50 -4t-61 -12.5t-51.5 -26.5t-20 -43.5t30.5 -45t73.5 -36t86.5 -37.5t74 -61.5t30.5 -97.5q0 -101 -96.5 -171.5t-243.5 -70.5q-74 0 -110 8q-9 9 -9 107.5t4 118.5q3 9 35 22t62 13q0 -118 25 -143q10 -10 38 -10q64 0 111.5 36t47.5 85
q0 33 -31 58t-75.5 43.5t-88.5 39t-75 56.5t-31 85q0 73 87.5 133.5t253.5 60.5q39 0 44 -5q1 -3 1 -14.5t-7 -44.5t-18 -45z" />
    <glyph glyph-name="T" unicode="T" horiz-adv-x="471" 
d="M162 80l7 416q0 51 -2.5 53.5t-16.5 2.5q-31 0 -110 -10l-27 -4l-3 26q0 48 16 84l6 12q78 1 176.5 6.5t178 5.5t79.5 -4q0 -29 -5 -69.5t-12 -47.5q-23 5 -85 5t-65 -3q-7 -7 -7 -261t30 -309v-1q0 -9 -39 -17t-62 -8q-32 0 -52 9q-7 8 -7 114z" />
    <glyph glyph-name="U" unicode="U" horiz-adv-x="591" 
d="M186 624l-8 -275q0 -260 110 -260q33 0 56 13.5t42 49.5q39 70 39 270.5t-11 267.5q11 5 28 5q75 0 100 -26q9 -45 9 -285q0 -245 -81 -336q-40 -45 -86.5 -63t-107.5 -18q-119 0 -173 90.5t-54 312.5q0 84 2.5 131t1.5 48q-6 11 -14.5 38t-8.5 39q0 4 19 12q49 19 91 19
t44 -2t2 -31z" />
    <glyph glyph-name="V" unicode="V" horiz-adv-x="599" 
d="M235 -48q-10 0 -12 2q-33 30 -123 301t-90 372q0 2 14 8q42 19 76.5 19t34.5 -3q4 -49 59.5 -259t95.5 -291q9 -18 18 -9q3 3 4 7q27 51 77.5 207.5t50.5 257.5q0 12 -22.5 26t-40.5 16q-1 2 -1 11t5 28.5t9 22.5q92 25 184 25q15 -2 15 -4q0 -86 -46.5 -257.5
t-95.5 -306t-64 -149.5q-44 -24 -148 -24z" />
    <glyph glyph-name="W" unicode="W" horiz-adv-x="784" 
d="M774 686q0 -99 -38 -270.5t-78 -298.5t-52 -138.5t-55.5 -20.5t-66.5 -9t-23 3q-2 8 -19 102q-50 263 -57 279.5t-9 16.5l-5 -6q-25 -62 -56.5 -193.5t-31.5 -150.5q0 -4 -19 -11q-52 -19 -102 -19q-11 0 -14 3q-27 27 -82.5 294.5t-55.5 376.5q0 2 10 8q34 17 74.5 16.5
t40.5 -2.5q7 -130 29.5 -273.5t43.5 -196.5q2 -7 4.5 -7t5.5 7q82 317 100 336q36 14 101 14q36 -2 39 -5t20 -83.5t37 -178t24.5 -117t12.5 1.5q17 47 43 171t26 234q0 11 -18.5 21.5t-37.5 12.5q-1 3 -1 12.5t4.5 28t7.5 21.5q91 24 182 24q16 -2 16 -3z" />
    <glyph glyph-name="X" unicode="X" horiz-adv-x="626" 
d="M310 233q-154 -247 -161 -256.5t-12 -9.5q-40 0 -73 11t-46 21t-13 13.5t8 10.5q76 77 234 323q-114 205 -136 224q-8 7 -28 15t-36 8q-1 2 -1 11.5t6.5 29t9.5 22.5t19 6q43 8 87.5 8t47 -2t14.5 -26q56 -109 92 -178q134 211 147 211q28 0 58 -12t47 -25.5t17 -19.5
q-70 -59 -207 -268q159 -283 237 -340q0 -13 -47.5 -38.5t-83.5 -25.5h-4q-37 36 -176 287z" />
    <glyph glyph-name="Y" unicode="Y" horiz-adv-x="624" 
d="M243 -30l3 275v13q-28 39 -99.5 167.5t-77.5 136.5q-23 23 -63 23q-1 2 -1 11t6.5 28.5t9 22t18.5 5.5q43 8 87 8t46.5 -2t27.5 -55q78 -166 115 -222h2q6 22 85.5 159t92.5 137q30 0 60 -8t47 -17.5t16 -15.5q-53 -59 -140.5 -189.5t-103.5 -188.5q-2 -20 -2 -129
t8 -143q0 -12 -32 -18t-62.5 -6t-42.5 8z" />
    <glyph glyph-name="Z" unicode="Z" horiz-adv-x="574" 
d="M554 199q0 -45 -20 -126.5t-29 -89.5q-3 -3 -14 -3q-22 0 -69 10l-15 4q-8 1 -41 1l-313 -9q-10 0 -21.5 28t-11.5 45t1 21q16 34 99.5 147t157.5 212.5t74 110.5q0 6 -74.5 6t-104.5 -15q-14 -5 -54 -75l-13 -22q-14 0 -39.5 15t-25.5 23q0 24 10.5 72t23 86t16.5 38
q28 0 57 -12.5t31 -12.5q90 13 201.5 13t129.5 -6q8 -7 18.5 -31t10.5 -54q0 -3 -8 -11q-62 -70 -191.5 -253t-129.5 -205q0 -7 83.5 -7t109.5 16q16 14 44 57t37 69q0 2 8.5 2t35 -16t26.5 -28z" />
    <glyph glyph-name="bracketleft" unicode="[" horiz-adv-x="213" 
d="M203 -79q-17 -21 -51 -29q-15 0 -64.5 29.5t-55.5 41.5q-2 4 -2 277v202q0 238 2 241q6 13 55.5 42.5t64.5 29.5q32 -7 51 -30q-71 -57 -77 -82q-2 -229 -2 -321l2 -318q3 -12 22 -32.5t37 -35.5z" />
    <glyph glyph-name="backslash" unicode="\" horiz-adv-x="560" 
d="M90 703l470 -744q-27 -10 -50.5 -10t-36.5 3l-473 744q26 10 50.5 10t39.5 -3z" />
    <glyph glyph-name="bracketright" unicode="]" horiz-adv-x="213" 
d="M10 725q16 20 51 30q15 0 64.5 -29.5t55.5 -42.5q2 -6 2 -174v-398q0 -144 -2 -148q-6 -12 -55.5 -41.5t-64.5 -29.5q-32 6 -51 29q71 57 77 83q2 228 2 321l-2 318q-3 11 -22 31.5t-37 35.5z" />
    <glyph glyph-name="asciicircum" unicode="^" horiz-adv-x="291" 
d="M147 218q-9 -5 -48.5 -43t-46.5 -47q-9 0 -22 11t-15 20q0 13 39 63t58 61q15 0 35 -13q19 13 34 13q19 -11 57 -62t38 -64q-2 -9 -15 -20t-22 -11q-6 8 -45 47.5t-47 44.5z" />
    <glyph glyph-name="underscore" unicode="_" horiz-adv-x="539" 
d="M39 -27q-9 10 -9 38.5t11 38.5h460q8 -11 8 -39t-9 -38h-461z" />
    <glyph glyph-name="grave" unicode="`" 
d="M266 488q-10 12 -44.5 43t-54.5 43q0 12 22.5 28.5t38.5 16.5q19 -11 46.5 -49t27.5 -51q-2 -9 -14.5 -20t-21.5 -11z" />
    <glyph glyph-name="a" unicode="a" horiz-adv-x="459" 
d="M407 223q0 -125 3 -146q8 -55 34 -79q0 -11 -39.5 -33t-71.5 -22q-9 0 -19 26.5t-11.5 39.5t-2.5 13l-3 -2q-53 -42 -124 -42t-109.5 34.5t-38.5 90.5t24.5 94.5t57.5 58.5t73 32q61 20 96 20l2 1q0 49 -124 49q-49 0 -73 -4h-1q0 20 12.5 50t21 39t71.5 9
q114 0 168 -43.5t54 -134.5v-51zM296 159v38q0 22 -1 22q-67 0 -116 -35q-31 -22 -31 -55q0 -21 15 -35t45.5 -14t59 18t28.5 61z" />
    <glyph glyph-name="b" unicode="b" horiz-adv-x="466" 
d="M57 144l-2 369q0 125 5 130q12 12 39.5 23t52.5 11t25 -4q-2 -10 -5.5 -113.5t-2.5 -128.5h16q111 0 181 -51q28 -21 49 -62.5t21 -96.5q0 -95 -77 -158.5t-189 -81.5q0 -23 -1 -25q-13 -13 -45.5 -20t-53 -7t-20.5 3q7 28 7 212zM172 91q26 0 54 8.5t45.5 21.5t32 41
t14.5 73t-31.5 69t-72.5 24l-46 -3v-72q0 -135 4 -162z" />
    <glyph glyph-name="c" unicode="c" horiz-adv-x="386" 
d="M254 -29q-114 0 -169 58t-55 146q0 123 82.5 196t201.5 73q23 0 27 -1q6 -5 6 -48t-12 -52h-7q-77 0 -125 -36q-20 -15 -35 -47t-15 -77t27 -74.5t87 -29.5q47 0 83 18q4 2 5 2q8 -8 8 -54t-11 -55q-33 -19 -98 -19z" />
    <glyph glyph-name="d" unicode="d" 
d="M300 429l-2 148q0 62 3 65q12 12 39.5 23.5t52.5 11.5t25 -4q-8 -166 -8 -353t6 -223q7 -54 33 -80q0 -10 -41.5 -31.5t-70.5 -21.5q-3 0 -9 8q-19 25 -23 68q0 3 -2 3l-3 -2q-42 -60 -125 -60q-67 0 -106 53t-39 119q0 113 70 192.5t200 83.5zM302 324q0 2 -11 2h-4
q-64 0 -100.5 -41t-36.5 -104q0 -37 17.5 -60.5t53 -23.5t57 31t21.5 49q0 111 3 147z" />
    <glyph glyph-name="e" unicode="e" horiz-adv-x="423" 
d="M281 318q0 29 -31 29q-41 0 -72 -42t-31 -101q0 -14 4 -14q36 1 83 41.5t47 86.5zM368 0q-34 -23 -133 -23t-152 59t-53 157.5t63.5 171t178.5 72.5q47 0 86.5 -25t39.5 -87.5t-54.5 -123.5t-148.5 -93q0 -12 24.5 -19.5t48.5 -7.5q76 0 120 27q1 1 3 1t2 -19
q0 -58 -25 -90z" />
    <glyph glyph-name="f" unicode="f" horiz-adv-x="300" 
d="M181 386l5 -400q0 -39 -2 -49q-38 -28 -101 -28l-28 5q15 111 15 410q0 75 -1 110l-44 -2q-5 5 -5 44t9 48q18 1 39 2l-2 121q-2 16 74 53t124 37q6 0 15.5 -22.5t9.5 -35t-1 -15.5q-3 0 -26 -10.5t-48 -27t-26 -28.5q-4 -26 -6 -71h4q81 0 81 -3q0 -47 -19 -78
q-7 -12 -12 -12q-32 2 -55 2v-50z" />
    <glyph glyph-name="g" unicode="g" horiz-adv-x="458" 
d="M416 248l2 -237q0 -78 -21 -138.5t-51 -94t-69 -54.5q-63 -35 -127 -35q-3 0 -12 15t-17 41t-8 48h19q20 0 38.5 3.5t45.5 19.5t46 42t33 77t14 119q0 4 -1 4l-3 -3q-42 -65 -131 -65q-67 0 -107 53t-40 119q0 120 77 198t221 78q35 0 35 -5q3 -17 3 -37l-1 -15h11
q32 0 43 -6v-127zM307 332l-21 3q-64 0 -101.5 -41.5t-37.5 -103.5q0 -31 18.5 -54t54 -23t59.5 28t24 45q0 114 4 146z" />
    <glyph glyph-name="h" unicode="h" horiz-adv-x="457" 
d="M48 194l-3 347q0 97 5 102q12 12 39 23t52 11t25 -4q-1 -9 -4 -131t-3 -160v-9q0 -5 3 -5l20 20q11 10 44.5 27.5t63 17.5t49 -10t32.5 -24t22 -40.5t13.5 -49t7.5 -61.5q3 -53 3 -134l-4 -133q-3 -8 -34 -14t-51 -6l-33 5q10 90 10 173t-12 126t-49 43q-24 0 -45 -19
t-29 -38l-9 -19q2 -69 2 -148t-5 -83q-30 -27 -110 -27q-8 0 -8 3q8 44 8 217z" />
    <glyph glyph-name="i" unicode="i" horiz-adv-x="220" 
d="M166 579q17 -18 17 -47t-22.5 -49.5t-50 -20.5t-44 17.5t-16.5 46.5t22 50t49.5 21t44.5 -18zM172 348l-2 -162q0 -78 4.5 -114.5t25.5 -68.5q0 -10 -41 -32t-70 -22q-9 0 -18 30t-11.5 57t-2.5 182t7 169q23 18 81 18q23 0 28 -6z" />
    <glyph glyph-name="j" unicode="j" horiz-adv-x="291" 
d="M238 147l2 -141q0 -78 -21 -138t-51 -93t-69 -53q-62 -33 -127 -33q-3 0 -12 15t-17 41t-8 48h10q37 0 85 21q93 47 93 219q2 66 2 152.5t-7 94.5q-14 13 -60 24l-15 3q-2 4 -2 11q0 46 14 60q60 30 166 30q18 0 20 -2q-3 -135 -3 -259zM218 579q17 -18 17 -47
t-22.5 -49.5t-50 -20.5t-44 18t-16.5 46.5t22 49.5t49.5 21t44.5 -18z" />
    <glyph glyph-name="k" unicode="k" horiz-adv-x="431" 
d="M58 194l-3 347q0 97 5 102q12 12 39 23t52 11t25 -4q-1 -5 -4.5 -140t-3.5 -174.5t1 -45t4 -5.5l2 1q32 34 95 85t81 51q59 -37 59 -60q-30 -19 -71 -52t-45 -42q0 -8 17.5 -57.5t51.5 -116.5t68 -101q0 -12 -44 -30t-76 -18q-12 0 -46.5 94t-47.5 146l-2 3q-4 0 -25 -29
t-21 -39l3 -102q0 -36 -4 -40q-13 -13 -45 -20t-52.5 -7t-20.5 3q8 44 8 217z" />
    <glyph glyph-name="l" unicode="l" horiz-adv-x="223" 
d="M50 142l4 362q0 79 -2 107t-2 30q0 10 33.5 23t59.5 13t26 -4q-5 -37 -5 -260l-2 -245q0 -69 2 -85q5 -44 29 -80q0 -10 -41 -32t-70 -22q-8 0 -18 30t-12 52t-2 111z" />
    <glyph glyph-name="m" unicode="m" horiz-adv-x="669" 
d="M57 124l-3 235q0 64 5 69q12 11 37 20.5t48 9.5t23 -4q-4 -44 -4 -67t2 -23t6 4.5t14.5 14t39 26t52.5 16.5q65 0 98 -58q57 80 126 80q62 0 89 -53q28 -59 33 -118q6 -86 6 -178l-4 -117q0 -7 -33 -13.5t-53 -6.5l-32 5q11 99 11 160t-1.5 87.5t-7.5 53t-18.5 38
t-31.5 11.5t-34 -10.5t-21.5 -20.5t-6.5 -13q3 -32 3 -148l-4 -79q0 -8 -32 -14t-52 -6l-32 5q9 81 9 151.5t-7.5 99t-39.5 28.5t-54 -32t-22 -49v-21l1 -106q0 -98 -4 -103q-25 -24 -105 -24q-8 0 -8 3q7 43 7 147z" />
    <glyph glyph-name="n" unicode="n" horiz-adv-x="465" 
d="M171 225l1 -37v-76q0 -107 -4 -111q-13 -13 -45 -20t-52.5 -7t-20.5 3q7 45 7 148l-3 225q0 62 5 67q11 11 38 19.5t50.5 8.5t23.5 -5q-3 -24 -3 -48t3 -24l3 2q5 7 15 17.5t42.5 28t62 17.5t50 -10.5t33.5 -25.5t22.5 -43t14.5 -52t8 -64q3 -55 3 -140l-3 -117
q0 -7 -33 -13.5t-53 -6.5l-33 5q10 90 10 174.5t-11 127t-44 42.5t-53.5 -18t-26.5 -36l-7 -17v-14z" />
    <glyph glyph-name="o" unicode="o" 
d="M396.5 43.5q-57.5 -69.5 -156 -69.5t-154.5 61t-56 158.5t69.5 173t187.5 75.5q48 -2 52 -6t4 -19t-3 -33q15 0 38.5 -17.5t38.5 -35.5t26 -50.5t11 -72.5q0 -95 -57.5 -164.5zM308 278q-23 15 -45 15h-8q-2 4 -2 17t3 25q-41 0 -76.5 -37t-35.5 -103q0 -78 50 -108
q19 -12 52.5 -12t63 31t29.5 92t-31 80z" />
    <glyph glyph-name="p" unicode="p" horiz-adv-x="458" 
d="M163 485l-1 -47q266 0 266 -206q0 -56 -22.5 -101.5t-55.5 -72t-72 -44.5q-67 -31 -120 -31v-15q0 -150 8 -200q-13 -13 -45 -20.5t-52 -7.5t-20 3q-4 32 -4 132l5 465q0 82 -3 114q12 12 40.5 23t49.5 11t26 -3zM158 144l1 -50q61 0 107 35t46 101q0 108 -151 108
l-1 -13v-34z" />
    <glyph glyph-name="q" unicode="q" horiz-adv-x="482" 
d="M408 96h18q13 0 17 0.5t4 -0.5q0 -15 -9.5 -44t-30.5 -58q-3 -6 -3 -55.5t6 -90.5t29 -69q-11 -16 -48.5 -31t-65.5 -15q-21 30 -26 85q-3 26 -3 167q-266 0 -266 206q0 57 21.5 103t52.5 72.5t70 43.5q67 31 125 31q1 3 1 30q9 13 35 21t50 8t27 -3q1 -6 0 -61
q-5 -165 -5 -243.5t1 -96.5zM297 290l-1 51q-55 0 -102.5 -38t-47.5 -99q0 -45 25.5 -72t55.5 -34.5t67 -7.5q3 99 3 200z" />
    <glyph glyph-name="r" unicode="r" horiz-adv-x="326" 
d="M52 135l-2 227q0 59 4 63q11 11 38 19.5t50.5 8.5t23.5 -5q-3 -27 -3 -61.5t2 -34.5t4 2.5t6.5 8t19 19.5t31.5 24q43 28 92 28q8 -13 8 -40q0 -57 -14 -81l-4 -8l-13 2q-72 0 -113 -59q-16 -24 -16 -36v-88q0 -120 -3 -123q-28 -27 -110 -27q-8 0 -8 3q7 39 7 158z" />
    <glyph glyph-name="s" unicode="s" horiz-adv-x="356" 
d="M331 115q0 -54 -50.5 -96.5t-109 -61t-102.5 -18.5q-5 0 -14 12q-25 33 -25 77v7q78 0 119 27t41 56q0 19 -25 40t-55 37t-55 42.5t-25 55.5q0 61 76 112t162 51q10 0 26 -27.5t17 -56.5q-20 0 -60 -12q-79 -25 -79 -62q0 -26 78 -71q30 -17 55 -47t26 -65z" />
    <glyph glyph-name="t" unicode="t" horiz-adv-x="232" 
d="M177 655q-2 -23 -5 -126q75 0 75 -3q0 -34 -10 -60.5t-19 -26.5h-47q-2 -148 -2 -240.5t3 -123.5q6 -52 41 -85q0 -11 -38.5 -32t-72.5 -21q-3 0 -11.5 10t-18 33t-12 45t-2.5 157t3 255l-56 -1q-5 5 -5 43.5t9 46.5q22 1 53 2q0 58 -3 75t-3 20q0 10 34.5 23t60.5 13
t26 -4z" />
    <glyph glyph-name="u" unicode="u" horiz-adv-x="457" 
d="M296 38l-1 21l-1 2q-24 -37 -60.5 -59t-71.5 -22q-105 0 -120 163q-2 26 -2 134t9 128q26 21 84 21q23 0 28 -5q0 -1 -1 -27q-5 -76 -5 -117t1 -60.5t1.5 -25t3 -19.5t7.5 -24q15 -29 46.5 -29t56 31.5t23.5 44.5v34q0 183 6 197q5 9 31.5 19t52.5 10t30 -4l-2 -47
q-6 -143 -6 -221t4 -99q7 -50 27 -80q0 -10 -41 -32t-70 -22q-8 0 -18 30t-12 58z" />
    <glyph glyph-name="v" unicode="v" horiz-adv-x="441" 
d="M183 -22q-28 0 -46 6q0 21 -63.5 211.5t-63.5 230.5q0 2 10.5 8.5t36.5 13.5t59 7q61 -248 92 -317q1 -5 4 0q18 32 55 169.5t41 179.5q1 6 22 10.5t55 4.5t46 -10q0 -29 -71 -258.5t-79 -237.5q-14 -14 -77 -17z" />
    <glyph glyph-name="w" unicode="w" horiz-adv-x="656" 
d="M323 388q67 0 69 -13q33 -187 53 -228h4q22 47 49 164t31 166q60 0 98 -21q12 -6 12 -8q0 -44 -30.5 -155t-61 -201.5t-34.5 -94.5t-35 -8.5t-57 -4.5t-34 4q-9 9 -33 97t-33 149h-3q-15 -61 -40.5 -144t-31.5 -89.5t-40 -13t-54 -6.5t-23 3q-8 7 -60 198t-52 239
q0 2 10.5 8.5t37 13t59.5 6.5q37 -218 68 -287q2 -5 5 0q17 33 35 102t22 111q1 5 24 9t45 4z" />
    <glyph glyph-name="x" unicode="x" horiz-adv-x="445" 
d="M440 56q0 -19 -35 -56.5t-53 -37.5q-29 12 -144 164q-81 -135 -100 -180q-25 0 -57.5 24.5t-40.5 42.5q0 19 128 208q-97 135 -97 150q6 21 33 47t49 32q8 -23 84 -131q97 135 136 164q11 0 47 -22t36 -33q-68 -69 -152 -198q108 -140 166 -174z" />
    <glyph glyph-name="y" unicode="y" horiz-adv-x="457" 
d="M409 279l1 -266q0 -78 -20.5 -139t-50 -94t-67.5 -54q-62 -35 -126 -35q-3 0 -12 15t-17 40.5t-8 47.5q38 0 76 14.5t53 31t30 41.5q31 49 31 159l-1 29q0 6 -2 6t-4 -3l-5 -7.5t-14.5 -16t-24.5 -20.5q-35 -24 -70.5 -24t-56 9t-34 23t-22.5 39.5t-14 47.5t-7 60
q-4 53 -4 110q0 79 8 129l3 14q0 7 30.5 14t50.5 7l32 -5q-11 -99 -11 -167t14 -113t47 -45t52.5 19.5t24.5 38.5l5 19q-2 63 -2 135.5t5 77.5q13 13 45.5 20t52.5 7t20 -3q-8 -47 -8 -162z" />
    <glyph glyph-name="z" unicode="z" horiz-adv-x="438" 
d="M392 -5q-38 3 -102 3q-118 0 -202 -14l-28 -4q-8 0 -19 28t-11 49q10 36 88 138t116 138q9 9 -43 15t-90.5 6t-47.5 -1q0 47 9.5 67t12.5 23q9 9 88.5 9t146.5 -7t73 -13q19 -28 19 -81q-52 -39 -120 -130t-68 -111q39 0 113.5 -7t80.5 -14v-11q0 -67 -16 -83z" />
    <glyph glyph-name="braceleft" unicode="{" horiz-adv-x="247" 
d="M65 492l-1 145q0 43 2 46q6 13 55.5 42.5t64.5 29.5q32 -7 51 -30q-72 -57 -77 -82q-3 -100 -3 -171.5t3 -89.5q-60 -47 -60 -59q0 -10 45 -46l15 -12q-3 -19 -3 -85l3 -176q4 -22 59 -68l18 -15q-17 -21 -51 -29q-15 0 -64.5 29.5t-55.5 41.5q-2 4 -2 56l1 134
q0 81 -4 109q-56 51 -56 61q0 8 42 49l14 13q4 27 4 107z" />
    <glyph glyph-name="bar" unicode="|" horiz-adv-x="179" 
d="M51 -42v736q13 13 38 13q21 0 28 -3t11 -4v-741q-9 -9 -24 -9h-18q-13 0 -19 2t-8 2.5t-3 1.5q-3 0 -5 2z" />
    <glyph glyph-name="braceright" unicode="}" horiz-adv-x="247" 
d="M182 163l1 -149q0 -43 -2 -51q-6 -12 -55.5 -41.5t-64.5 -29.5q-32 6 -51 29q71 57 77 83q2 99 2 173.5t-2 87.5q59 47 59 58q0 10 -44 47l-15 12q2 12 2 84l-2 177q-3 11 -22 31.5t-37 35.5l-18 15q16 20 51 30q15 0 64.5 -29.5t53.5 -39t4 -53.5l-1 -149q0 -70 3 -99
q57 -52 57 -62q0 -4 -14 -19.5t-28 -28.5l-15 -13q-3 -29 -3 -99z" />
    <glyph glyph-name="asciitilde" unicode="~" horiz-adv-x="306" 
d="M161.5 188q-43.5 7 -68.5 7t-57 -16q-6 8 -6 38t6 36q25 19 51.5 19t67.5 -7t67 -7t47 17q7 0 7 -25q0 -36 -8 -54q-20 -15 -41.5 -15t-65 7z" />
    <glyph glyph-name="exclamdown" unicode="&#xa1;" horiz-adv-x="215" 
d="M111 225l41 -5q0 -95 8 -207t16 -177l9 -64q-10 -10 -59 -13l-17 -1q-54 0 -75 14q-3 2 -3 4l4 18q18 84 18 113t7 152.5t10 157.5q19 8 41 8zM41 361q0 28 19.5 47.5t47.5 19.5t47.5 -19.5t19.5 -47.5t-19.5 -47.5t-47.5 -19.5t-47.5 19.5t-19.5 47.5z" />
    <glyph glyph-name="cent" unicode="&#xa2;" horiz-adv-x="387" 
d="M152 290q0 -76 70 -97v228q-70 -41 -70 -131zM222 533v48q19 19 58 19h1v-54q24 3 45.5 3t24.5 -1q5 -5 5 -52.5t-12 -47.5h-5q-28 0 -58 -6v-255q41 3 78 17q8 -8 8 -52.5t-10 -56.5q-28 -11 -76 -14v-32q-17 -17 -49 -19h-10v51q-98 8 -145 63t-47 144.5t53 154
t139 90.5z" />
    <glyph glyph-name="sterling" unicode="&#xa3;" horiz-adv-x="530" 
d="M319 337h-111q-1 -46 -1 -140.5t4 -98.5q12 -12 85.5 -12t107.5 33.5t44 80.5q16 -1 36.5 -11.5t20.5 -27.5t-13.5 -71t-34.5 -82q-12 -15 -97 -15q-83 0 -153 7l-27 2q-48 -10 -79 -10l-47 4q0 22 22 70l8 16q7 14 9 255h-83q0 47 25 72h58q0 145 1 151q7 20 32.5 40.5
t53.5 34.5q70 34 182 34q18 -20 18 -76q-14 0 -36.5 -2.5t-66.5 -20.5t-60 -47q-3 -14 -7 -114h134q0 -45 -25 -72z" />
    <glyph glyph-name="currency" unicode="&#xa4;" horiz-adv-x="468" 
d="M307 390.5q-30 29.5 -72.5 29.5t-72 -29.5t-29.5 -72.5t29.5 -72.5t72 -29.5t72.5 29.5t30 72.5t-30 72.5zM366 404q26 -38 26 -86.5t-26 -86.5l72 -112q-23 -9 -45.5 -9t-35.5 3l-43 68q-34 -21 -78.5 -21t-82.5 22l-42 -67q-13 -3 -27 -3q-31 0 -54 9l71 112
q-24 40 -24 86.5t26 84.5l-73 115q23 9 45.5 9t35.5 -3l44 -71q38 22 80 22t79 -21l43 68q13 3 27 3q31 0 54 -9z" />
    <glyph glyph-name="yen" unicode="&#xa5;" horiz-adv-x="611" 
d="M233 -9l-1 41q0 67 4 167h-149q0 46 24 71h129q1 7 1 17v3l-31 47h-123q0 46 24 71h54q-12 20 -26.5 45t-23.5 40t-19 31q-18 30 -26.5 37t-28.5 15t-36 8q0 14 6.5 36.5t9.5 25.5q13 13 128 13q13 0 15 -2t18 -31q65 -122 91 -167t26.5 -46.5t3.5 -3t5 4.5q20 41 81 136
t97 127q30 0 59 -7.5t44.5 -16t14.5 -14.5q-93 -102 -178 -231h66q0 -45 -25 -71h-83q-23 -47 -23 -67h131q0 -45 -25 -71h-107q0 -160 8 -192q0 -24 -97 -24q-24 0 -38 8z" />
    <glyph glyph-name="brokenbar" unicode="&#xa6;" horiz-adv-x="179" 
d="M51 283q13 13 31 13t46 -7v-330q-9 -9 -24 -9h-18q-13 0 -19 2t-8 2.5t-3 1.5q-3 0 -5 2v325zM51 379v315q13 13 38 13q21 0 28 -3t11 -4v-320q-9 -9 -24 -9h-18q-13 0 -19 2t-8 2.5t-3 0.5q-3 2 -5 3z" />
    <glyph glyph-name="section" unicode="&#xa7;" horiz-adv-x="514" 
d="M162 453q-59 37 -59 78.5t35.5 69.5t88.5 41q94 23 170 23h13q4 0 8 -20t4 -34t-5 -34h-10q-73 0 -126 -19q-34 -12 -34 -31q0 -14 24 -28t59 -28.5t70 -31t59.5 -41.5t24.5 -55q0 -45 -36.5 -78t-94.5 -62q-2 -1 0 -2q58 -38 58 -79t-35.5 -69t-88.5 -41
q-94 -23 -169 -23h-13q-4 0 -8 21t-4 36.5t4 30.5h10q74 0 127 19q34 12 34 31q0 28 -118 71q-45 17 -82.5 47.5t-37.5 66.5q0 48 45 85q35 28 86 55zM315 376q-42 23 -59.5 23t-58 -25t-40.5 -48.5t43 -47t59.5 -23.5t57 25t40.5 49t-42 47z" />
    <glyph glyph-name="dieresis" unicode="&#xa8;" 
d="M197 547q0 -21 -16 -37t-37.5 -16t-35.5 14t-14 36.5t15.5 38t36.5 15.5t36 -15t15 -36zM384 547q0 -21 -15.5 -37t-37 -16t-35.5 14t-14 36.5t15.5 38t36.5 15.5t35.5 -15t14.5 -36z" />
    <glyph glyph-name="copyright" unicode="&#xa9;" horiz-adv-x="375" 
d="M188 444q-52 0 -89 -37t-37 -89t37 -89t89 -37t89 37t37 89t-37 89t-89 37zM345 318q0 -65 -46 -111.5t-111 -46.5t-111.5 46.5t-46.5 111.5t46.5 111.5t111.5 46.5t111 -46.5t46 -111.5zM231 239q-12 -9 -46.5 -9t-57.5 25.5t-23 63t25 63t58.5 25.5t41.5 -8q2 -1 2 -15
t-2.5 -14t-11 3t-24.5 3t-35 -13t-19 -42t15.5 -44.5t41.5 -15.5q20 0 26 3t10 4q3 -3 3 -14t-4 -15z" />
    <glyph glyph-name="ordfeminine" unicode="&#xaa;" horiz-adv-x="317" 
d="M113 483l-47 -2q0 12 8 31.5t13.5 25t45.5 5.5q141 0 141 -113v-33q0 -80 3 -94q4 -33 21 -50q0 -7 -25 -21t-46 -14q-5 0 -12 16.5t-7.5 25t-1.5 8.5l-2 -2q-34 -26 -79 -26t-70 22t-25 61.5t22.5 67t53.5 39.5q56 21 85 21l1 1q0 31 -79 31zM204 356v24q0 14 -1 14
q-28 0 -61 -14t-33 -43q0 -13 10 -22.5t29.5 -9.5t37.5 11.5t18 39.5z" />
    <glyph glyph-name="guillemotleft" unicode="&#xab;" horiz-adv-x="554" 
d="M349 225q0 -17 78 -109t110 -118q2 -2 1 -4q-1 -7 -40 -7l-46 4q-21 0 -118 107t-97 125.5t98.5 126.5t116.5 108q22 4 46 4t32 -2q11 -4 7 -8q-32 -27 -110 -118.5t-78 -108.5zM122 225q0 -17 78.5 -109.5t110.5 -117.5q4 -6 -1 -6q-14 -5 -39 -5l-46 4q-21 0 -118 107
t-97 125.5t98.5 126.5t116.5 108q22 4 46.5 4t32.5 -2q9 -4 7 -8q-32 -26 -110.5 -118t-78.5 -109z" />
    <glyph glyph-name="logicalnot" unicode="&#xac;" horiz-adv-x="525" 
d="M495 100q-11 -9 -39 -9t-39 11v278h-378q-9 11 -9 39t11 38h446q8 -11 8 -38v-319z" />
    <glyph glyph-name="registered" unicode="&#xae;" horiz-adv-x="375" 
d="M345 318q0 -65 -46 -111.5t-111 -46.5t-111.5 46.5t-46.5 111.5t46.5 111.5t111.5 46.5t111 -46.5t46 -111.5zM188 444q-52 0 -89 -37t-37 -89t37 -89t89 -37t89 37t37 89t-37 89t-89 37zM259 242q-8 -8 -28 -8h-7q-6 6 -18.5 33t-13.5 33q-5 -2 -26 -5q2 -55 3 -58
q-7 -6 -27 -6l-9 2l4 142q-10 10 -10 26q3 3 49 3q80 0 80 -44q0 -33 -38 -50q0 -3 16 -31t25 -37zM166 322q29 3 43 14t14 22q0 20 -37 20l-19 -1q-1 -7 -1 -55z" />
    <glyph glyph-name="macron" unicode="&#xaf;" horiz-adv-x="465" 
d="M119 504q-9 10 -9 38.5t11 38.5h238q8 -11 8 -39t-9 -38h-239z" />
    <glyph glyph-name="degree" unicode="&#xb0;" horiz-adv-x="178" 
d="M90 595q-17 0 -30 -12.5t-13 -31t12 -30t29 -11.5t30 13t13 30t-12 29.5t-29 12.5zM168 554q0 -32 -24 -56.5t-57 -24.5t-55 21.5t-22 55.5t24 58.5t56 24.5t55 -23.5t23 -55.5z" />
    <glyph glyph-name="plusminus" unicode="&#xb1;" horiz-adv-x="540" 
d="M39 385q-9 10 -9 38t11 39h190v133q12 8 39 8t39 -9v-132h193q8 -11 8 -39t-10 -38h-191v-132q-11 -9 -39 -9t-39 11v130h-192zM39 101q-9 10 -9 38.5t11 38.5h460q8 -11 8 -39t-9 -38h-461z" />
    <glyph glyph-name="twosuperior" unicode="&#xb2;" horiz-adv-x="307" 
d="M122 360q0 -4 13 -4h19q91 0 126 11h1q1 0 1 -7.5t-5.5 -30t-11.5 -28.5t-76 -6l-100 3l-60 -2h-2q-2 2 -2 30t5 33q61 55 116 124t55 93q0 34 -52 34q-26 0 -42 -12.5t-21 -25.5t-10 -36q-1 -1 -19 -1t-26 8q-1 1 -1 49t3.5 51.5t20.5 8.5q42 13 99.5 13t91 -23
t33.5 -59q0 -61 -156 -223z" />
    <glyph glyph-name="threesuperior" unicode="&#xb3;" horiz-adv-x="347" 
d="M180 596.5q-19 9.5 -49 9.5t-62 -10q-2 1 -2.5 28t7.5 33q26 8 67 8q138 0 138 -85q0 -28 -17.5 -46.5t-36.5 -25.5l-1 -2q53 -18 74 -59q9 -18 9 -40q0 -62 -52.5 -92t-123.5 -30q-50 0 -83 11q-7 7 -7 86v18q1 3 13.5 7t23.5 4t11 -1q0 -66 59 -66q41 0 61.5 18.5
t20.5 44.5q0 62 -124 62q-5 0 -5 2q0 23 7.5 39t8.5 16q7 -1 23.5 -1t33.5 9q25 14 25 33.5t-19 29z" />
    <glyph glyph-name="acute" unicode="&#xb4;" 
d="M238 488q-9 0 -21.5 11t-14.5 20q0 13 27.5 51t46.5 49q16 0 38.5 -16.5t22.5 -28.5q-20 -12 -54.5 -43t-44.5 -43z" />
    <glyph glyph-name="mu" unicode="&#xb5;" horiz-adv-x="457" 
d="M296 38l-1 21l-1 2q-24 -37 -60.5 -59t-71.5 -22h-7q-3 -71 -25.5 -126t-52 -85t-67.5 -49q-61 -31 -122 -31q-3 0 -12 15t-17 41t-8 48h10q37 0 85 21q93 47 93 219q2 61 1.5 99t-0.5 145.5t9 127.5q26 21 84 21q23 0 28 -5q0 -1 -1 -27q-5 -76 -5 -117t1 -60.5t1.5 -25
t3 -19.5t7.5 -24q15 -29 46.5 -29t56 31.5t23.5 44.5v34q0 183 6 197q5 9 31.5 19t52.5 10t30 -4l-2 -47q-6 -143 -6 -221t4 -99q7 -50 27 -80q0 -10 -41 -32t-70 -22q-8 0 -18 30t-12 58z" />
    <glyph glyph-name="paragraph" unicode="&#xb6;" horiz-adv-x="520" 
d="M465 247l1 -263q-16 -12 -35 -12q-34 0 -50 9q6 42 6 243l-1 238q0 110 2 130q-31 0 -63 -14q-7 -7 -7 -150l3 -355q0 -55 -2 -65q-4 -10 -23.5 -16.5t-39.5 -6.5t-20 3q7 17 7 136t-1 129q-53 13 -97 33.5t-79.5 61.5t-35.5 93q0 60 48 112q58 64 183 92q71 16 162 18h8
q38 0 38 -6q-6 -109 -6 -262z" />
    <glyph glyph-name="periodcentered" unicode="&#xb7;" horiz-adv-x="187" 
d="M152 212q0 -24 -18.5 -42.5t-42.5 -18.5t-40 16.5t-16 41.5t17.5 43t41.5 18t41 -17t17 -41z" />
    <glyph glyph-name="cedilla" unicode="&#xb8;" horiz-adv-x="386" 
d="M255 -29q-8 -14 -8 -30q15 -6 30.5 -21.5t15.5 -28.5q0 -24 -31.5 -41t-61.5 -17q-3 0 -8 9.5t-5 16t1 8.5q20 0 35.5 8.5t15.5 17.5t-11 16t-22 9l-12 2q0 29 19 61q20 0 42 -10z" />
    <glyph glyph-name="onesuperior" unicode="&#xb9;" horiz-adv-x="237" 
d="M165 635l-3 -219q0 -59 3 -62q12 1 20 1t8 -1q4 -12 4 -34t-3 -22h-16q-47 0 -90 -6l-15 -2q-3 3 -3 27.5t3 27.5l23 4l-1 27l4 168q0 38 -4 42q0 1 -4.5 1t-16.5 -3l-33 -6q-1 0 -1 21t5.5 26.5t56 25.5t60.5 20h1q2 -2 2 -36z" />
    <glyph glyph-name="ordmasculine" unicode="&#xba;" horiz-adv-x="332" 
d="M265 290.5q-37 -44.5 -100 -44.5t-99 39t-36 101.5t44.5 111t120.5 48.5q30 -1 33 -4t3 -12t-3 -21q9 0 24.5 -11.5t25.5 -23.5q24 -27 24 -83t-37 -100.5zM174 450l-1 8q0 12 2 20q-26 0 -48.5 -24t-22.5 -66q0 -47 26 -66q13 -11 36.5 -11t42.5 20t19 59q0 60 -48 60
h-6z" />
    <glyph glyph-name="guillemotright" unicode="&#xbb;" horiz-adv-x="554" 
d="M205 218q0 17 -78 108.5t-110 118.5q-2 1 -1 3q1 7 40 7l46 -4q18 0 116.5 -108t98.5 -126.5t-97 -125.5t-118 -107q-22 -4 -46 -4t-32 2q-12 4 -7 9q32 26 110 118t78 109zM432 218q0 17 -78.5 109t-110.5 118q-1 1 -1 3q2 7 41 7l46 -4q18 0 116.5 -108t98.5 -126.5
t-97 -125.5t-118 -107q-22 -4 -46.5 -4t-38.5 5q-5 0 -1 6q32 25 110.5 117.5t78.5 109.5z" />
    <glyph glyph-name="onequarter" unicode="&#xbc;" horiz-adv-x="672" 
d="M593 89q0 -65 6 -91q0 -5 -24 -11t-41 -6l-14 1q-3 3 -3 22.5t2 83.5q-42 -2 -102.5 -2t-64.5 2q-10 10 -12 45q0 15 66 114.5t101 138.5q5 9 39 9t34 -3t-17.5 -23.5t-17.5 -23.5q50 -1 50 -8q-3 -98 -3 -189q28 0 34 1t6 -2q0 -15 -8 -33.5t-12 -22.5zM47 -27l457 721
q13 4 26 4q25 0 45 -12l-460 -721q-17 -3 -29 -3q-24 0 -39 11zM165 635l-3 -219q0 -59 3 -62q12 1 20 1t8 -1q4 -12 4 -34t-3 -22h-16q-47 0 -90 -6l-15 -2q-3 3 -3 27.5t3 27.5l23 4l-1 27l4 168q0 38 -4 42q0 1 -4.5 1t-16.5 -3l-33 -6q-1 0 -1 21t5.5 26.5t56 25.5
t60.5 20h1q2 -2 2 -36zM462 146l60 1q3 74 3 120t-2 46q-10 -10 -56 -80t-46 -84q0 -3 41 -3z" />
    <glyph glyph-name="onehalf" unicode="&#xbd;" horiz-adv-x="693" 
d="M47 -27l457 721q13 4 26 4q25 0 45 -12l-460 -721q-17 -3 -29 -3q-24 0 -39 11zM503 59q0 -4 13 -4h19q91 0 126 11h1q1 0 1 -7.5t-5.5 -30t-11.5 -28.5t-76 -6l-100 3l-60 -2h-2q-2 2 -2 30t5 33q61 55 116 124t55 93q0 34 -52 34q-26 0 -42 -12.5t-21 -25.5t-10 -36
q-1 -1 -19 -1t-26 8q-1 1 -1 49t3.5 51.5t19.5 8.5q43 13 100.5 13t91 -23t33.5 -59q0 -61 -156 -223zM165 635l-3 -219q0 -59 3 -62q12 1 20 1t8 -1q4 -12 4 -34t-3 -22h-16q-47 0 -90 -6l-15 -2q-3 3 -3 27.5t3 27.5l23 4l-1 27l4 168q0 38 -4 42q0 1 -4.5 1t-16.5 -3
l-33 -6q-1 0 -1 21t5.5 26.5t56 25.5t60.5 20h1q2 -2 2 -36z" />
    <glyph glyph-name="threequarters" unicode="&#xbe;" horiz-adv-x="746" 
d="M667 89q0 -65 6 -91q0 -5 -24 -11t-41 -6l-14 1q-3 3 -3 22.5t2 83.5q-42 -2 -102.5 -2t-64.5 2q-10 10 -12 45q0 15 66 114.5t101 138.5q5 9 39 9t34 -3t-17.5 -23.5t-17.5 -23.5q50 -1 50 -8q-3 -98 -3 -189q28 0 34 1t6 -2q0 -15 -8 -33.5t-12 -22.5zM121 -27l457 721
q13 4 26 4q25 0 45 -12l-460 -721q-16 -3 -29 -3q-24 0 -39 11zM180 596.5q-19 9.5 -49 9.5t-62 -10q-2 1 -2.5 28t7.5 33q26 8 67 8q138 0 138 -85q0 -28 -17.5 -46.5t-36.5 -25.5l-1 -2q53 -18 74 -59q9 -18 9 -40q0 -62 -52.5 -92t-123.5 -30q-50 0 -83 11q-7 7 -7 86v18
q1 3 13.5 7t23.5 4t11 -1q0 -66 59 -66q41 0 61.5 18.5t20.5 44.5q0 62 -124 62q-5 0 -5 2q0 23 7.5 39t8.5 16q7 -1 23.5 -1t33.5 9q25 14 25 33.5t-19 29zM536 146l60 1q3 74 3 120t-2 46q-10 -10 -56 -80t-46 -84q0 -3 41 -3z" />
    <glyph glyph-name="questiondown" unicode="&#xbf;" horiz-adv-x="396" 
d="M283 -238q-137 0 -195 47t-58 115q0 57 28 95q29 37 54.5 51.5t38 21t25 11t13.5 5.5q7 3 13 41t6 56q6 6 28.5 12t39 6t24.5 -2q11 -18 11 -75.5t-6 -79.5q-158 -38 -158 -128q0 -78 144 -78q51 0 74 10q6 -10 6 -42.5t-9 -52.5q-27 -13 -79 -13zM332 360
q0 -28 -19.5 -47.5t-47.5 -19.5t-47.5 19.5t-19.5 47.5t19.5 47.5t47.5 19.5t47.5 -19.5t19.5 -47.5z" />
    <glyph glyph-name="Agrave" unicode="&#xc0;" horiz-adv-x="616" 
d="M357 720q-10 12 -44.5 43t-54.5 43q0 12 22.5 28.5t38.5 16.5q19 -11 46.5 -49t27.5 -51q-2 -9 -14.5 -20t-21.5 -11zM385 224q-14 1 -86 1t-84 -4q-53 -174 -60 -251q0 -1 -24.5 -1t-50.5 3q-55 8 -55 14q0 40 71 233q-13 11 -30 45.5t-17 57.5q0 1 83 4q82 238 93 251
q4 3 36 9.5t41 6.5l-2 13q-2 14 -4.5 30.5t-2.5 21.5q0 3 17 12q49 24 101 24q10 -59 26.5 -150.5t64.5 -279.5t92 -262l7 -12q0 -5 -19 -17t-50 -23t-57 -11q-9 0 -43.5 113.5t-46.5 171.5zM361 327q-34 144 -37 161t-5 17t-5 -4q-9 -17 -33.5 -82t-31.5 -90q111 0 112 -2z
" />
    <glyph glyph-name="Aacute" unicode="&#xc1;" horiz-adv-x="616" 
d="M276 688q-9 0 -21.5 11t-14.5 20q0 13 27.5 51t46.5 49q16 0 38.5 -16.5t22.5 -28.5q-20 -12 -54.5 -43t-44.5 -43zM385 224q12 -58 46.5 -171.5t43.5 -113.5q26 0 57 11t50 23t19 17q-6 11 -7 12q-44 74 -89.5 247t-69.5 309l-24 136q-52 0 -101 -24q-17 -9 -17 -12
q0 -5 2.5 -21.5t4.5 -30.5l2 -13q-9 0 -41 -6.5t-36 -9.5q-11 -13 -93 -251q-83 -3 -83 -4q0 -23 17 -57.5t30 -45.5q-71 -193 -71 -233q0 -6 40.5 -11.5t65 -5.5t24.5 1q7 77 60 251q12 4 84 4t86 -1zM321 502q6 -31 40 -175q-1 2 -112 2q7 25 31.5 90t33.5 82q3 4 5 4z
" />
    <glyph glyph-name="Acircumflex" unicode="&#xc2;" horiz-adv-x="616" 
d="M318 776q-9 -5 -37 -31t-35 -35q-9 0 -22 11t-15 20q0 13 27.5 51t46.5 49q15 0 35 -13q20 13 34 13q19 -11 46.5 -49t27.5 -51q-2 -9 -15 -20t-22 -11q-5 7 -34 34t-37 32zM385 224q-14 1 -86 1t-84 -4q-53 -174 -60 -251q0 -1 -24.5 -1t-50.5 3q-55 8 -55 14
q0 40 71 233q-13 11 -30 45.5t-17 57.5q0 1 83 4q82 238 93 251q4 3 36 9.5t41 6.5l-2 13q-2 14 -4.5 30.5t-2.5 21.5q0 3 17 12q49 24 101 24q10 -59 26.5 -150.5t64.5 -279.5t92 -262l7 -12q0 -5 -19 -17t-50 -23t-57 -11q-9 0 -43.5 113.5t-46.5 171.5zM361 327
q-34 144 -37 161t-5 17t-5 -4q-9 -17 -33.5 -82t-31.5 -90q111 0 112 -2z" />
    <glyph glyph-name="Atilde" unicode="&#xc3;" horiz-adv-x="616" 
d="M328.5 731q-23.5 7 -48.5 7t-57 -16q-6 8 -6 38t6 36q25 19 51.5 19t47.5 -7t47 -7t47 17q7 0 7 -26q0 -35 -8 -53q-20 -15 -41.5 -15t-45 7zM385 224q-14 1 -86 1t-84 -4q-53 -174 -60 -251q0 -1 -24.5 -1t-50.5 3q-55 8 -55 14q0 40 71 233q-13 11 -30 45.5t-17 57.5
q0 1 83 4q82 238 93 251q4 3 36 9.5t41 6.5l-2 13q-2 14 -4.5 30.5t-2.5 21.5q0 3 17 12q49 24 101 24q10 -59 26.5 -150.5t64.5 -279.5t92 -262l7 -12q0 -5 -19 -17t-50 -23t-57 -11q-9 0 -43.5 113.5t-46.5 171.5zM361 327q-34 144 -37 161t-5 17t-5 -4q-9 -17 -33.5 -82
t-31.5 -90q111 0 112 -2z" />
    <glyph glyph-name="Adieresis" unicode="&#xc4;" horiz-adv-x="616" 
d="M300 782q0 -21 -16 -37t-37.5 -16t-35.5 14t-14 36.5t15.5 38t36.5 15.5t36 -15t15 -36zM487 782q0 -21 -15.5 -37t-37 -16t-35.5 14t-14 36.5t15.5 38t36.5 15.5t35.5 -15t14.5 -36zM385 224q12 -58 46.5 -171.5t43.5 -113.5q26 0 57 11t50 23t19 17q-6 11 -7 12
q-44 74 -89.5 247t-69.5 309l-24 136q-52 0 -101 -24q-17 -9 -17 -12q0 -5 2.5 -21.5t4.5 -30.5l2 -13q-9 0 -41 -6.5t-36 -9.5q-11 -13 -93 -251q-83 -3 -83 -4q0 -23 17 -57.5t30 -45.5q-71 -193 -71 -233q0 -6 40.5 -11.5t65 -5.5t24.5 1q7 77 60 251q12 4 84 4t86 -1z
M321 502q6 -31 40 -175q-1 2 -112 2q7 25 31.5 90t33.5 82q3 4 5 4z" />
    <glyph glyph-name="Aring" unicode="&#xc5;" horiz-adv-x="616" 
d="M363.5 805.5q-8.5 8.5 -20 8.5t-20.5 -9t-9 -21.5t8 -20.5t20 -8t21 9t9 21t-8.5 20.5zM409 786q0 -27 -20.5 -47.5t-47.5 -20.5t-45.5 18t-18.5 46.5t20 49t47 20.5t46 -19.5t19 -46.5zM385 224q12 -58 46.5 -171.5t43.5 -113.5q26 0 57 11t50 23t19 17q-6 11 -7 12
q-44 74 -89.5 247t-69.5 309l-24 136q-52 0 -101 -24q-17 -9 -17 -12q0 -5 2.5 -21.5t4.5 -30.5l2 -13q-9 0 -41 -6.5t-36 -9.5q-11 -13 -93 -251q-83 -3 -83 -4q0 -23 17 -57.5t30 -45.5q-71 -193 -71 -233q0 -6 40.5 -11.5t65 -5.5t24.5 1q7 77 60 251q12 4 84 4t86 -1z
M321 502q6 -31 40 -175q-1 2 -112 2q7 25 31.5 90t33.5 82q3 4 5 4z" />
    <glyph glyph-name="AE" unicode="&#xc6;" horiz-adv-x="855" 
d="M776 0q-6 -6 -169 -8l6 -11q0 -5 -20 -16.5t-52 -22t-58 -10.5q-10 0 -46.5 118t-48.5 174q-14 1 -86 1t-84 -4q-56 -186 -63 -271q0 -1 -24.5 -1t-50.5 3q-55 7 -55 14q0 35 74 253q-13 11 -30.5 45t-17.5 57q0 2 83 4q85 242 94 251q4 4 37.5 10.5t39.5 6.5l-2 13
q-2 14 -4.5 30t-2.5 20.5t16.5 13t45 16t54.5 7.5q17 -102 19.5 -102t3.5 2q0 63 6 69q81 4 223.5 4t142.5 -4q0 -21 -9.5 -46t-20 -39.5t-15 -13t-40 1.5t-100.5 -4.5t-71 -10.5t-6 -109l1 -42q94 2 144 2t50 -3q0 -39 -24 -82q-8 -15 -10 -14h-7q-29 0 -89 -5.5t-62.5 -8
t-2.5 -85.5t4 -87q15 -15 171 -15q54 0 73 3q32 5 32 2q0 -23 -15.5 -55.5t-33.5 -50.5zM252 328l67 1q43 0 45 -2q-32 135 -40 174q-2 3 -4 3t-6 -9t-29.5 -75.5t-32.5 -91.5z" />
    <glyph glyph-name="Ccedilla" unicode="&#xc7;" horiz-adv-x="600" 
d="M266 -157l1 6q25 0 43.5 10t18.5 21.5t-13.5 20t-27.5 11.5l-13 2q0 23 16 57q-126 12 -191 93.5t-65 205.5q0 113 50 210q29 57 73 100t119 71t170 28q32 0 57 -6t25 -8q0 -48 -6.5 -109.5t-7.5 -62.5q-5 -5 -41.5 -16t-54.5 -11v6q0 45 -13 63t-45 18q-71 0 -132 -74.5
t-61 -204.5q0 -69 34 -124q18 -29 52.5 -47t81.5 -18q94 0 183 87q4 0 16.5 -12.5t24.5 -33.5q25 -40 25 -49t-29 -32t-88.5 -48t-122.5 -28q-6 -13 -6 -30q6 -3 15.5 -7.5t25 -20.5t15.5 -32q0 -29 -38.5 -50t-74.5 -21q-3 0 -9.5 12.5t-6.5 22.5z" />
    <glyph glyph-name="Egrave" unicode="&#xc8;" horiz-adv-x="530" 
d="M296 688q-10 12 -44.5 43t-54.5 43q0 12 22.5 28.5t38.5 16.5q19 -11 46.5 -49t27.5 -51q-2 -9 -14.5 -20t-21.5 -11zM93 391l1 108q0 43 -2 47q-11 11 -28.5 53t-17.5 54q11 11 351 11q84 0 84 -4q0 -21 -9.5 -46t-20 -40t-15 -13.5t-41 1.5t-101.5 -4.5t-71 -10.5
t-6 -110l1 -42q40 1 118 1t78 -3q0 -36 -24 -82q-9 -16 -11 -15q-26 0 -89 -4.5t-73 -10.5q-1 -1 -1 -84t5 -88q16 -16 172 -16q63 0 85 3.5t22 2.5q0 -24 -16 -57t-34 -50q-10 -10 -179.5 -10t-175.5 8q-6 5 -6 96.5t2 193.5q-18 16 -34.5 50t-16.5 58q0 1 53 3z" />
    <glyph glyph-name="Eacute" unicode="&#xc9;" horiz-adv-x="530" 
d="M246 690q-9 0 -21.5 11t-14.5 20q0 13 27.5 51t46.5 49q16 0 38.5 -16.5t22.5 -28.5q-20 -12 -54.5 -43t-44.5 -43zM93 391l1 108q0 43 -2 47q-11 11 -28.5 53t-17.5 54q11 11 351 11q84 0 84 -4q0 -21 -9.5 -46t-20 -40t-15 -13.5t-41 1.5t-101.5 -4.5t-71 -10.5
t-6 -110l1 -42q40 1 118 1t78 -3q0 -36 -24 -82q-9 -16 -11 -15q-26 0 -89 -4.5t-73 -10.5q-1 -1 -1 -84t5 -88q16 -16 172 -16q63 0 85 3.5t22 2.5q0 -24 -16 -57t-34 -50q-10 -10 -179.5 -10t-175.5 8q-6 5 -6 96.5t2 193.5q-18 16 -34.5 50t-16.5 58q0 1 53 3z" />
    <glyph glyph-name="Ecircumflex" unicode="&#xca;" horiz-adv-x="530" 
d="M265 754q-9 -5 -37 -31t-35 -35q-9 0 -22 11t-15 20q0 13 27.5 51t46.5 49q15 0 35 -13q19 13 34 13q19 -11 46.5 -49t27.5 -51q-2 -9 -15 -20t-22 -11q-5 7 -34 34t-37 32zM93 391l1 108q0 43 -2 47q-11 11 -28.5 53t-17.5 54q11 11 351 11q84 0 84 -4q0 -21 -9.5 -46
t-20 -40t-15 -13.5t-41 1.5t-101.5 -4.5t-71 -10.5t-6 -110l1 -42q40 1 118 1t78 -3q0 -36 -24 -82q-9 -16 -11 -15q-26 0 -89 -4.5t-73 -10.5q-1 -1 -1 -84t5 -88q16 -16 172 -16q63 0 85 3.5t22 2.5q0 -24 -16 -57t-34 -50q-10 -10 -179.5 -10t-175.5 8q-6 5 -6 96.5
t2 193.5q-18 16 -34.5 50t-16.5 58q0 1 53 3z" />
    <glyph glyph-name="Edieresis" unicode="&#xcb;" horiz-adv-x="530" 
d="M223 747q0 -21 -16 -37t-37.5 -16t-35.5 14t-14 36.5t15.5 38t36.5 15.5t36 -15t15 -36zM410 747q0 -21 -15.5 -37t-37 -16t-35.5 14t-14 36.5t15.5 38t36.5 15.5t35.5 -15t14.5 -36zM93 391l1 108q0 43 -2 47q-11 11 -28.5 53t-17.5 54q11 11 351 11q84 0 84 -4
q0 -21 -9.5 -46t-20 -40t-15 -13.5t-41 1.5t-101.5 -4.5t-71 -10.5t-6 -110l1 -42q40 1 118 1t78 -3q0 -36 -24 -82q-9 -16 -11 -15q-26 0 -89 -4.5t-73 -10.5q-1 -1 -1 -84t5 -88q16 -16 172 -16q63 0 85 3.5t22 2.5q0 -24 -16 -57t-34 -50q-10 -10 -179.5 -10t-175.5 8
q-6 5 -6 96.5t2 193.5q-18 16 -34.5 50t-16.5 58q0 1 53 3z" />
    <glyph glyph-name="Igrave" unicode="&#xcc;" horiz-adv-x="307" 
d="M258 89q4 0 4 -49.5t-6 -49.5q-145 0 -208 -14q-3 0 -3 44t7 53q12 6 39 6q-2 34 -2 242.5t5 238.5h-2q-27 0 -45 -6q-2 0 -2 45.5t6 51.5t80 11t124 5q3 0 3 -16l-3 -74q0 -4 -3 -4q-34 0 -36 -1.5t-3 -41.5q-4 -158 -4 -273.5t8 -168.5q13 1 41 1zM185 688
q-10 12 -44.5 43t-54.5 43q0 12 22.5 28.5t38.5 16.5q19 -11 46.5 -49t27.5 -51q-2 -9 -14.5 -20t-21.5 -11z" />
    <glyph glyph-name="Iacute" unicode="&#xcd;" horiz-adv-x="307" 
d="M255 577l3 74q0 16 -3 16q-105 0 -154 -7.5t-50 -8.5q-6 -6 -6 -51.5t2 -45.5q18 6 45 6h2q-5 -30 -5 -238.5t2 -242.5q-27 0 -39 -6q-7 -9 -7 -53t3 -44q63 14 208 14l3 3q3 27 3 61.5t-4 34.5q-28 0 -41 -1q-8 53 -8 161t1 175q4 146 6 147.5t36 1.5q3 0 3 4zM122 688
q-9 0 -21.5 11t-14.5 20q0 13 27.5 51t46.5 49q16 0 38.5 -16.5t22.5 -28.5q-20 -12 -54.5 -43t-44.5 -43z" />
    <glyph glyph-name="Icircumflex" unicode="&#xce;" horiz-adv-x="307" 
d="M258 89q4 0 4 -49.5t-6 -49.5q-145 0 -208 -14q-3 0 -3 44t7 53q12 6 39 6q-2 34 -2 242.5t5 238.5h-2q-27 0 -45 -6q-2 0 -2 45.5t6 51.5t80 11t124 5q3 0 3 -16l-3 -74q0 -4 -3 -4q-34 0 -36 -1.5t-3 -41.5q-4 -158 -4 -273.5t8 -168.5q13 1 41 1zM154 754
q-9 -5 -37 -31t-35 -35q-9 0 -22 11t-15 20q0 13 27.5 51t46.5 49q15 0 35 -13q19 13 34 13q19 -11 46.5 -49t27.5 -51q-2 -9 -15 -20t-22 -11q-5 7 -34 34t-37 32z" />
    <glyph glyph-name="Idieresis" unicode="&#xcf;" horiz-adv-x="307" 
d="M255 577l3 74q0 16 -3 16q-105 0 -154 -7.5t-50 -8.5q-6 -6 -6 -51.5t2 -45.5q18 6 45 6h2q-5 -30 -5 -238.5t2 -242.5q-27 0 -39 -6q-7 -9 -7 -53t3 -44q63 14 208 14l3 3q3 27 3 61.5t-4 34.5q-28 0 -41 -1q-8 53 -8 161t1 175q4 146 6 147.5t36 1.5q3 0 3 4zM112 747
q0 -21 -16 -37t-37.5 -16t-35.5 14t-14 36.5t15.5 38t36.5 15.5t36 -15t15 -36zM299 747q0 -21 -15.5 -37t-37 -16t-35.5 14t-14 36.5t15.5 38t36.5 15.5t35.5 -15t14.5 -36z" />
    <glyph glyph-name="Eth" unicode="&#xd0;" horiz-adv-x="625" 
d="M224 -23.5q-47 -8.5 -88 -8.5t-47 6t-6 178v157h-50q-10 13 -10 27t4 24t8 11h49q2 122 2 176q-11 17 -28 60.5t-17 52t1 9.5q10 10 118 10q208 0 321.5 -87t113.5 -233q0 -72 -23 -132.5t-61.5 -102t-86 -73t-100.5 -49t-100 -26zM442 249.5q20 49.5 20 105.5t-20 95.5
t-47 60t-62 33.5q-54 20 -103 20q-13 0 -13 -1q-5 -5 -7 -192h94q9 -15 9 -32t-10 -30h-93v-9q0 -202 7 -209q2 -2 14.5 -2t38 7t60 26.5t63.5 48.5t49 78.5z" />
    <glyph glyph-name="Ntilde" unicode="&#xd1;" horiz-adv-x="613" 
d="M100 -30q-20 0 -36 6v30q0 153 10 444l4 97q-13 17 -25.5 53.5t-12.5 45t2 10.5t50.5 5.5t100 3.5t57.5 -5q177 -396 180.5 -404t5.5 -8l4 7v28q0 85 -5.5 212t-11.5 158q14 13 51.5 22.5t68 9.5t30.5 -5q0 -20 -7 -47t-7 -28q-7 -45 -7 -140.5t0.5 -137.5t1 -80.5
t1.5 -76t1 -68.5q2 -66 2 -92l1 -14q0 -3 -13 -8q-39 -16 -105 -16l-37 4q-40 113 -117 285t-86 185.5t-11 13.5l-3 -7q-4 -28 -4 -120.5t4.5 -201.5t10.5 -137q-27 -24 -98 -24zM372 767q37 0 63 22q4 0 4 -35t-4 -39q-22 -21 -56 -21q-13 0 -41 8t-44 8t-28.5 -3.5
t-19.5 -6t-8 -2.5q-4 4 -4 32t6 34q27 18 49 18t47.5 -7.5t35.5 -7.5z" />
    <glyph glyph-name="Ograve" unicode="&#xd2;" horiz-adv-x="664" 
d="M322 -30q-149 0 -220.5 86t-71.5 216q0 63 15 118t28 78t21 27.5t63 4.5h19q0 50 19.5 87t50.5 55q58 33 110 33q278 0 278 -350q0 -109 -37 -194q-21 -48 -55 -82.5t-90.5 -56.5t-129.5 -22zM505 333q0 235 -140 235q-40 0 -61.5 -23t-21.5 -58.5t22.5 -83.5t45.5 -76
l22 -28q0 -12 -37 -22.5t-59 -10.5q-5 0 -20.5 19t-36 58.5t-29.5 83.5q-15 -15 -24 -61t-9 -89q0 -84 47 -143.5t119 -59.5q182 0 182 259zM363 688q-10 12 -44.5 43t-54.5 43q0 12 22.5 28.5t38.5 16.5q19 -11 46.5 -49t27.5 -51q-2 -9 -14.5 -20t-21.5 -11z" />
    <glyph glyph-name="Oacute" unicode="&#xd3;" horiz-adv-x="664" 
d="M322 -30q-149 0 -220.5 86t-71.5 216q0 63 15 118t28 78t21 27.5t63 4.5h19q0 50 19.5 87t50.5 55q58 33 110 33q278 0 278 -350q0 -109 -37 -194q-21 -48 -55 -82.5t-90.5 -56.5t-129.5 -22zM505 333q0 235 -140 235q-40 0 -61.5 -23t-21.5 -58.5t22.5 -83.5t45.5 -76
l22 -28q0 -12 -37 -22.5t-59 -10.5q-5 0 -20.5 19t-36 58.5t-29.5 83.5q-15 -15 -24 -61t-9 -89q0 -84 47 -143.5t119 -59.5q182 0 182 259zM300 688q-9 0 -21.5 11t-14.5 20q0 13 27.5 51t46.5 49q16 0 38.5 -16.5t22.5 -28.5q-20 -12 -54.5 -43t-44.5 -43z" />
    <glyph glyph-name="Ocircumflex" unicode="&#xd4;" horiz-adv-x="664" 
d="M322 -30q-149 0 -220.5 86t-71.5 216q0 63 15 118t28 78t21 27.5t63 4.5h19q0 50 19.5 87t50.5 55q58 33 110 33q278 0 278 -350q0 -109 -37 -194q-21 -48 -55 -82.5t-90.5 -56.5t-129.5 -22zM505 333q0 235 -140 235q-40 0 -61.5 -23t-21.5 -58.5t22.5 -83.5t45.5 -76
l22 -28q0 -12 -37 -22.5t-59 -10.5q-5 0 -20.5 19t-36 58.5t-29.5 83.5q-15 -15 -24 -61t-9 -89q0 -84 47 -143.5t119 -59.5q182 0 182 259zM332 754q-9 -5 -37 -31t-35 -35q-9 0 -22 11t-15 20q0 13 27.5 51t46.5 49q15 0 35 -13q19 13 34 13q19 -11 46.5 -49t27.5 -51
q-2 -9 -15 -20t-22 -11q-5 7 -34 34t-37 32z" />
    <glyph glyph-name="Otilde" unicode="&#xd5;" horiz-adv-x="664" 
d="M322 -30q-149 0 -220.5 86t-71.5 216q0 63 15 118t28 78t21 27.5t63 4.5h19q0 50 19.5 87t50.5 55q58 33 110 33q278 0 278 -350q0 -109 -37 -194q-21 -48 -55 -82.5t-90.5 -56.5t-129.5 -22zM505 333q0 235 -140 235q-40 0 -61.5 -23t-21.5 -58.5t22.5 -83.5t45.5 -76
l22 -28q0 -12 -37 -22.5t-59 -10.5q-5 0 -20.5 19t-36 58.5t-29.5 83.5q-15 -15 -24 -61t-9 -89q0 -84 47 -143.5t119 -59.5q182 0 182 259zM355.5 717q-23.5 7 -48.5 7t-57 -16q-6 8 -6 38t6 36q25 19 51.5 19t47.5 -7t47 -7t47 17q7 0 7 -26q0 -35 -8 -53
q-20 -15 -41.5 -15t-45 7z" />
    <glyph glyph-name="Odieresis" unicode="&#xd6;" horiz-adv-x="664" 
d="M322 -30q-149 0 -220.5 86t-71.5 216q0 63 15 118t28 78t21 27.5t63 4.5h19q0 50 19.5 87t50.5 55q58 33 110 33q278 0 278 -350q0 -109 -37 -194q-21 -48 -55 -82.5t-90.5 -56.5t-129.5 -22zM505 333q0 235 -140 235q-40 0 -61.5 -23t-21.5 -58.5t22.5 -83.5t45.5 -76
l22 -28q0 -12 -37 -22.5t-59 -10.5q-5 0 -20.5 19t-36 58.5t-29.5 83.5q-15 -15 -24 -61t-9 -89q0 -84 47 -143.5t119 -59.5q182 0 182 259zM290 747q0 -21 -16 -37t-37.5 -16t-35.5 14t-14 36.5t15.5 38t36.5 15.5t36 -15t15 -36zM477 747q0 -21 -15.5 -37t-37 -16
t-35.5 14t-14 36.5t15.5 38t36.5 15.5t35.5 -15t14.5 -36z" />
    <glyph glyph-name="multiply" unicode="&#xd7;" horiz-adv-x="407" 
d="M21 508q3 15 24.5 31t42.5 16l115 -156l116 156q22 0 44 -18q16 -11 23 -29l-132 -178l133 -178q-5 -14 -28 -32q-23 -15 -39 -15l-117 157l-116 -157q-18 0 -34 11q-27 20 -33 36l132 178z" />
    <glyph glyph-name="Oslash" unicode="&#xd8;" horiz-adv-x="664" 
d="M75 -29l43 68q-88 81 -88 233q0 63 15 118t28 78t21 27.5t63 4.5h19q0 50 19.5 87t50.5 55q58 33 110 33q86 0 145 -33l28 44q10 2 19 2q22 0 54 -19l-46 -72q78 -87 78 -272q0 -109 -37 -194q-21 -48 -55 -82.5t-90.5 -56.5t-134.5 -22t-140 30l-29 -46q-10 -2 -18 -2
q-21 0 -55 19zM505 333q0 91 -22 148l-243 -382q38 -25 83 -25q182 0 182 259zM157 277q0 -70 33 -125l249 392q-31 24 -72 24t-63 -22.5t-22 -51.5v-2q1 -32 9 -55.5t15 -30.5l7 -8q0 -12 -37 -22.5t-59 -10.5q-16 22 -24 51l-3 11q-15 -15 -24 -61t-9 -89z" />
    <glyph glyph-name="Ugrave" unicode="&#xd9;" horiz-adv-x="591" 
d="M327 688q-10 12 -44.5 43t-54.5 43q0 12 22.5 28.5t38.5 16.5q19 -11 46.5 -49t27.5 -51q-2 -9 -14.5 -20t-21.5 -11zM186 624l-8 -275q0 -260 110 -260q33 0 56 13.5t42 49.5q39 70 39 270.5t-11 267.5q11 5 28 5q75 0 100 -26q9 -45 9 -285q0 -245 -81 -336
q-40 -45 -86.5 -63t-107.5 -18q-119 0 -173 90.5t-54 312.5q0 84 2.5 131t1.5 48q-6 11 -14.5 38t-8.5 39q0 4 19 12q49 19 91 19t44 -2t2 -31z" />
    <glyph glyph-name="Uacute" unicode="&#xda;" horiz-adv-x="591" 
d="M264 688q-9 0 -21.5 11t-14.5 20q0 13 27.5 51t46.5 49q16 0 38.5 -16.5t22.5 -28.5q-20 -12 -54.5 -43t-44.5 -43zM186 624l-8 -275q0 -260 110 -260q33 0 56 13.5t42 49.5q39 70 39 270.5t-11 267.5q11 5 28 5q75 0 100 -26q9 -45 9 -285q0 -245 -81 -336
q-40 -45 -86.5 -63t-107.5 -18q-119 0 -173 90.5t-54 312.5q0 84 2.5 131t1.5 48q-6 11 -14.5 38t-8.5 39q0 4 19 12q49 19 91 19t44 -2t2 -31z" />
    <glyph glyph-name="Ucircumflex" unicode="&#xdb;" horiz-adv-x="591" 
d="M294 763q-9 -5 -37 -31t-35 -35q-9 0 -22 11t-15 20q0 13 27.5 51t46.5 49q15 0 35 -13q20 13 34 13q19 -11 46.5 -49t27.5 -51q-2 -9 -15 -20t-22 -11q-5 7 -34 34t-37 32zM186 624l-8 -275q0 -260 110 -260q33 0 56 13.5t42 49.5q39 70 39 270.5t-11 267.5q11 5 28 5
q75 0 100 -26q9 -45 9 -285q0 -245 -81 -336q-40 -45 -86.5 -63t-107.5 -18q-119 0 -173 90.5t-54 312.5q0 84 2.5 131t1.5 48q-6 11 -14.5 38t-8.5 39q0 4 19 12q49 19 91 19t44 -2t2 -31z" />
    <glyph glyph-name="Udieresis" unicode="&#xdc;" horiz-adv-x="591" 
d="M250 765q0 -21 -16 -37t-37.5 -16t-35.5 14t-14 36.5t15.5 38t36.5 15.5t36 -15t15 -36zM437 765q0 -21 -15.5 -37t-37 -16t-35.5 14t-14 36.5t15.5 38t36.5 15.5t35.5 -15t14.5 -36zM186 624l-8 -275q0 -260 110 -260q33 0 56 13.5t42 49.5q39 70 39 270.5t-11 267.5
q11 5 28 5q75 0 100 -26q9 -45 9 -285q0 -245 -81 -336q-40 -45 -86.5 -63t-107.5 -18q-119 0 -173 90.5t-54 312.5q0 84 2.5 131t1.5 48q-6 11 -14.5 38t-8.5 39q0 4 19 12q49 19 91 19t44 -2t2 -31z" />
    <glyph glyph-name="Yacute" unicode="&#xdd;" horiz-adv-x="624" 
d="M243 -30l3 275v13q-28 39 -99.5 167.5t-77.5 136.5q-23 23 -63 23q-1 2 -1 11t6.5 28.5t9 22t18.5 5.5q43 8 87 8t46.5 -2t27.5 -55q78 -166 115 -222h2q6 22 85.5 159t92.5 137q30 0 60 -8t47 -17.5t16 -15.5q-53 -59 -140.5 -189.5t-103.5 -188.5q-2 -20 -2 -129
t8 -143q0 -12 -32 -18t-62.5 -6t-42.5 8zM306 692q-9 0 -21.5 11t-14.5 20q0 13 27.5 51t46.5 49q16 0 38.5 -16.5t22.5 -28.5q-20 -12 -54.5 -43t-44.5 -43z" />
    <glyph glyph-name="Thorn" unicode="&#xde;" horiz-adv-x="585" 
d="M203 452l-3 -219q123 11 173 50.5t50 92.5q0 40 -41.5 62.5t-105.5 22.5l-72 -6zM73 -24l5 483q0 111 -6 119.5t-19 39t-13 39.5q0 4 22 11q55 20 97 20t44.5 -3t2.5 -49.5t-1 -67.5q8 1 46 1t92.5 -10t103.5 -30.5t78.5 -58.5t29.5 -95t-36.5 -107t-88.5 -76
q-108 -55 -194 -66l-37 -4q1 -32 1.5 -53t1.5 -34t2 -17q1 -12 5 -24q-11 -11 -43.5 -17.5t-55.5 -6.5t-37 6z" />
    <glyph glyph-name="germandbls" unicode="&#xdf;" horiz-adv-x="583" 
d="M54 319l-2 109v10q0 113 66 172.5t198 59.5q97 0 154 -44q48 -38 48 -107q0 -45 -35.5 -89t-109.5 -68q-13 -4 -3 -6t22.5 -5.5t43.5 -17t54.5 -31t43 -49.5t19.5 -79t-30 -88.5t-76 -62.5q-88 -40 -174 -40q-14 0 -20 1q-16 16 -25 39t-10 39v15q142 0 184 55
q20 25 20 52q0 42 -48.5 70t-97.5 35l-48 7q-5 0 -5 19v6q0 30 10.5 53t20.5 28q60 12 101 43.5t41 64.5q0 65 -96 65q-47 0 -82.5 -25.5t-43.5 -66.5q-3 -16 -3 -78l4 -354q0 -120 -7 -134q-9 -13 -43.5 -27.5t-56.5 -14.5t-38 2q24 91 24 388v54z" />
    <glyph glyph-name="agrave" unicode="&#xe0;" horiz-adv-x="459" 
d="M407 223q0 -125 3 -146q8 -55 34 -79q0 -11 -39.5 -33t-71.5 -22q-9 0 -19 26.5t-11.5 39.5t-2.5 13l-3 -2q-53 -42 -124 -42t-109.5 34.5t-38.5 90.5t24.5 94.5t57.5 58.5t73 32q61 20 96 20l2 1q0 49 -124 49q-49 0 -73 -4h-1q0 20 12.5 50t21 39t71.5 9
q114 0 168 -43.5t54 -134.5v-51zM296 159v38q0 22 -1 22q-67 0 -116 -35q-31 -22 -31 -55q0 -21 15 -35t45.5 -14t59 18t28.5 61zM261 488q-10 12 -44.5 43t-54.5 43q0 12 22.5 28.5t38.5 16.5q19 -11 46.5 -49t27.5 -51q-2 -9 -14.5 -20t-21.5 -11z" />
    <glyph glyph-name="aacute" unicode="&#xe1;" horiz-adv-x="459" 
d="M407 223q0 -125 3 -146q8 -55 34 -79q0 -11 -39.5 -33t-71.5 -22q-9 0 -19 26.5t-11.5 39.5t-2.5 13l-3 -2q-53 -42 -124 -42t-109.5 34.5t-38.5 90.5t24.5 94.5t57.5 58.5t73 32q61 20 96 20l2 1q0 49 -124 49q-49 0 -73 -4h-1q0 20 12.5 50t21 39t71.5 9
q114 0 168 -43.5t54 -134.5v-51zM296 159v38q0 22 -1 22q-67 0 -116 -35q-31 -22 -31 -55q0 -21 15 -35t45.5 -14t59 18t28.5 61zM221 488q-9 0 -21.5 11t-14.5 20q0 13 27.5 51t46.5 49q16 0 38.5 -16.5t22.5 -28.5q-20 -12 -54.5 -43t-44.5 -43z" />
    <glyph glyph-name="acircumflex" unicode="&#xe2;" horiz-adv-x="459" 
d="M407 223q0 -125 3 -146q8 -55 34 -79q0 -11 -39.5 -33t-71.5 -22q-9 0 -19 26.5t-11.5 39.5t-2.5 13l-3 -2q-53 -42 -124 -42t-109.5 34.5t-38.5 90.5t24.5 94.5t57.5 58.5t73 32q61 20 96 20l2 1q0 49 -124 49q-49 0 -73 -4h-1q0 20 12.5 50t21 39t71.5 9
q114 0 168 -43.5t54 -134.5v-51zM230 554q-9 -5 -37 -31t-35 -35q-9 0 -22 11t-15 20q0 13 27.5 51t46.5 49q15 0 35 -13q19 13 34 13q19 -11 46.5 -49t27.5 -51q-2 -9 -15 -20t-22 -11q-5 7 -34 34t-37 32zM296 159v38q0 22 -1 22q-67 0 -116 -35q-31 -22 -31 -55
q0 -21 15 -35t45.5 -14t59 18t28.5 61z" />
    <glyph glyph-name="atilde" unicode="&#xe3;" horiz-adv-x="459" 
d="M407 223q0 -125 3 -146q8 -55 34 -79q0 -11 -39.5 -33t-71.5 -22q-9 0 -19 26.5t-11.5 39.5t-2.5 13l-3 -2q-53 -42 -124 -42t-109.5 34.5t-38.5 90.5t24.5 94.5t57.5 58.5t73 32q61 20 96 20l2 1q0 49 -124 49q-49 0 -73 -4h-1q0 20 12.5 50t21 39t71.5 9
q114 0 168 -43.5t54 -134.5v-51zM296 159v38q0 22 -1 22q-67 0 -116 -35q-31 -22 -31 -55q0 -21 15 -35t45.5 -14t59 18t28.5 61zM243.5 503q-23.5 7 -48.5 7t-57 -16q-6 8 -6 38t6 36q25 19 51.5 19t47.5 -7t47 -7t47 17q7 0 7 -26q0 -35 -8 -53q-20 -15 -41.5 -15t-45 7z
" />
    <glyph glyph-name="adieresis" unicode="&#xe4;" horiz-adv-x="459" 
d="M407 223q0 -125 3 -146q8 -55 34 -79q0 -11 -39.5 -33t-71.5 -22q-9 0 -19 26.5t-11.5 39.5t-2.5 13l-3 -2q-53 -42 -124 -42t-109.5 34.5t-38.5 90.5t24.5 94.5t57.5 58.5t73 32q61 20 96 20l2 1q0 49 -124 49q-49 0 -73 -4h-1q0 20 12.5 50t21 39t71.5 9
q114 0 168 -43.5t54 -134.5v-51zM296 159v38q0 22 -1 22q-67 0 -116 -35q-31 -22 -31 -55q0 -21 15 -35t45.5 -14t59 18t28.5 61zM188 547q0 -21 -16 -37t-37.5 -16t-35.5 14t-14 36.5t15.5 38t36.5 15.5t36 -15t15 -36zM375 547q0 -21 -15.5 -37t-37 -16t-35.5 14t-14 36.5
t15.5 38t36.5 15.5t35.5 -15t14.5 -36z" />
    <glyph glyph-name="aring" unicode="&#xe5;" horiz-adv-x="459" 
d="M407 223q0 -125 3 -146q8 -55 34 -79q0 -11 -39.5 -33t-71.5 -22q-9 0 -19 26.5t-11.5 39.5t-2.5 13l-3 -2q-53 -42 -124 -42t-109.5 34.5t-38.5 90.5t24.5 94.5t57.5 58.5t73 32q61 20 96 20l2 1q0 49 -124 49q-49 0 -73 -4h-1q0 20 12.5 50t21 39t71.5 9
q114 0 168 -43.5t54 -134.5v-51zM296 159v38q0 22 -1 22q-67 0 -116 -35q-31 -22 -31 -55q0 -21 15 -35t45.5 -14t59 18t28.5 61zM296 554q0 -27 -20.5 -47.5t-47.5 -20.5t-45.5 18t-18.5 46.5t20 49t47 20.5t46 -19.5t19 -46.5zM250.5 573.5q-8.5 8.5 -20 8.5t-20.5 -9
t-9 -21.5t8 -20.5t20 -8t21 9t9 21t-8.5 20.5z" />
    <glyph glyph-name="ae" unicode="&#xe6;" horiz-adv-x="689" 
d="M189 452q148 0 194 -69q56 54 155 54q47 0 86.5 -25t39.5 -87.5t-54.5 -124t-148.5 -92.5q0 -12 22.5 -19.5t46.5 -7.5q74 0 126 28q3 0 3 -19q0 -58 -25 -91q-34 -23 -131 -23q-33 0 -65 8q-16 -14 -45.5 -28t-54.5 -14q-10 0 -19.5 27t-12.5 51q-1 3 -4 0
q-53 -42 -124.5 -42t-109.5 34.5t-38 90.5t24.5 94.5t57.5 58.5t72 32q62 20 97 20l2 1q0 49 -124 49q-46 0 -74 -4q0 20 12.5 50.5t21 39t70.5 8.5zM168 94q15 -14 45.5 -14t59 18t28.5 61v38q0 22 -1 22q-67 0 -116 -35q-31 -22 -31 -55q0 -21 15 -35zM413 204l1 -13l3 -2
q36 2 83 42.5t47 86.5q0 28 -35 28t-67 -44t-32 -98z" />
    <glyph glyph-name="ccedilla" unicode="&#xe7;" horiz-adv-x="386" 
d="M255 -29q-8 -14 -8 -30q15 -6 30.5 -21.5t15.5 -28.5q0 -24 -31.5 -41t-61.5 -17q-3 0 -8 9.5t-5 16t1 8.5q20 0 35.5 8.5t15.5 17.5t-11 16t-22 9l-12 2q0 24 15 54q-91 12 -135 67.5t-44 133.5q0 123 82.5 196t201.5 73q23 0 27 -1q6 -5 6 -48t-12 -52h-7
q-77 0 -125 -36q-20 -15 -35 -47t-15 -77t27 -74.5t87 -29.5q47 0 83 18q4 2 5 2q8 -8 8 -54t-11 -55q-33 -19 -97 -19z" />
    <glyph glyph-name="egrave" unicode="&#xe8;" horiz-adv-x="423" 
d="M265 480q-10 12 -44.5 43t-54.5 43q0 12 22.5 28.5t38.5 16.5q19 -11 46.5 -49t27.5 -51q-2 -9 -14.5 -20t-21.5 -11zM281 318q0 29 -31 29q-41 0 -72 -42t-31 -101q0 -14 4 -14q36 1 83 41.5t47 86.5zM368 0q-34 -23 -133 -23t-152 59t-53 157.5t63.5 171t178.5 72.5
q47 0 86.5 -25t39.5 -87.5t-54.5 -123.5t-148.5 -93q0 -12 24.5 -19.5t48.5 -7.5q76 0 120 27q1 1 3 1t2 -19q0 -58 -25 -90z" />
    <glyph glyph-name="eacute" unicode="&#xe9;" horiz-adv-x="423" 
d="M218 488q-9 0 -21.5 11t-14.5 20q0 13 27.5 51t46.5 49q16 0 38.5 -16.5t22.5 -28.5q-20 -12 -54.5 -43t-44.5 -43zM281 318q0 29 -31 29q-41 0 -72 -42t-31 -101q0 -14 4 -14q36 1 83 41.5t47 86.5zM368 0q-34 -23 -133 -23t-152 59t-53 157.5t63.5 171t178.5 72.5
q47 0 86.5 -25t39.5 -87.5t-54.5 -123.5t-148.5 -93q0 -12 24.5 -19.5t48.5 -7.5q76 0 120 27q1 1 3 1t2 -19q0 -58 -25 -90z" />
    <glyph glyph-name="ecircumflex" unicode="&#xea;" horiz-adv-x="423" 
d="M241 550q-9 -5 -37 -31t-35 -35q-9 0 -22 11t-15 20q0 13 27.5 51t46.5 49q15 0 35 -13q19 13 34 13q19 -11 46.5 -49t27.5 -51q-2 -9 -15 -20t-22 -11q-5 7 -34 34t-37 32zM281 318q0 29 -31 29q-41 0 -72 -42t-31 -101q0 -14 4 -14q36 1 83 41.5t47 86.5zM368 0
q-34 -23 -133 -23t-152 59t-53 157.5t63.5 171t178.5 72.5q47 0 86.5 -25t39.5 -87.5t-54.5 -123.5t-148.5 -93q0 -12 24.5 -19.5t48.5 -7.5q76 0 120 27q1 1 3 1t2 -19q0 -58 -25 -90z" />
    <glyph glyph-name="edieresis" unicode="&#xeb;" horiz-adv-x="423" 
d="M170 547q0 -21 -16 -37t-37.5 -16t-35.5 14t-14 36.5t15.5 38t36.5 15.5t36 -15t15 -36zM357 547q0 -21 -15.5 -37t-37 -16t-35.5 14t-14 36.5t15.5 38t36.5 15.5t35.5 -15t14.5 -36zM281 318q0 29 -31 29q-41 0 -72 -42t-31 -101q0 -14 4 -14q36 1 83 41.5t47 86.5z
M368 0q-34 -23 -133 -23t-152 59t-53 157.5t63.5 171t178.5 72.5q47 0 86.5 -25t39.5 -87.5t-54.5 -123.5t-148.5 -93q0 -12 24.5 -19.5t48.5 -7.5q76 0 120 27q1 1 3 1t2 -19q0 -58 -25 -90z" />
    <glyph glyph-name="igrave" unicode="&#xec;" horiz-adv-x="220" 
d="M147 453q-10 12 -44.5 43t-54.5 43q0 12 22.5 28.5t38.5 16.5q19 -11 46.5 -49t27.5 -51q-2 -9 -14.5 -20t-21.5 -11zM172 348l-2 -162q0 -78 4.5 -114.5t25.5 -68.5q0 -10 -41 -32t-70 -22q-9 0 -18 30t-11.5 57t-2.5 182t7 169q23 18 81 18q23 0 28 -6z" />
    <glyph glyph-name="iacute" unicode="&#xed;" horiz-adv-x="220" 
d="M104 457q-9 0 -21.5 11t-14.5 20q0 13 27.5 51t46.5 49q16 0 38.5 -16.5t22.5 -28.5q-20 -12 -54.5 -43t-44.5 -43zM172 348l-2 -162q0 -78 4.5 -114.5t25.5 -68.5q0 -10 -41 -32t-70 -22q-9 0 -18 30t-11.5 57t-2.5 182t7 169q23 18 81 18q23 0 28 -6z" />
    <glyph glyph-name="icircumflex" unicode="&#xee;" horiz-adv-x="220" 
d="M119 524q-9 -5 -37 -31t-35 -35q-9 0 -22 11t-15 20q0 13 27.5 51t46.5 49q15 0 35 -13q19 13 34 13q19 -11 46.5 -49t27.5 -51q-2 -9 -15 -20t-22 -11q-5 7 -34 34t-37 32zM172 348l-2 -162q0 -78 4.5 -114.5t25.5 -68.5q0 -10 -41 -32t-70 -22q-9 0 -18 30t-11.5 57
t-2.5 182t7 169q23 18 81 18q23 0 28 -6z" />
    <glyph glyph-name="idieresis" unicode="&#xef;" horiz-adv-x="220" 
d="M75 518q0 -21 -16 -37t-37.5 -16t-35.5 14t-14 36.5t15.5 38t36.5 15.5t36 -15t15 -36zM262 518q0 -21 -15.5 -37t-37 -16t-35.5 14t-14 36.5t15.5 38t36.5 15.5t35.5 -15t14.5 -36zM172 348l-2 -162q0 -78 4.5 -114.5t25.5 -68.5q0 -10 -41 -32t-70 -22q-9 0 -18 30
t-11.5 57t-2.5 182t7 169q23 18 81 18q23 0 28 -6z" />
    <glyph glyph-name="eth" unicode="&#xf0;" horiz-adv-x="497" 
d="M387 628l57 34q18 -20 18 -42q0 -7 -1 -10l-57 -34q6 -27 6 -60v-97q0 -280 7 -329t31 -73q0 -10 -41 -31.5t-70 -21.5q-10 0 -20.5 27t-12.5 55h-4q-42 -65 -125 -65q-67 0 -106 53t-39 119q0 113 69 191.5t201 84.5q1 21 1 79v6l-68 -41q-18 19 -18 42q0 7 1 10l79 47
q-13 70 -88 100q21 42 34 42q33 -5 54 -11t49 -25t43 -50zM299 177q0 123 3 146l-15 3q-65 0 -101.5 -41.5t-36.5 -103.5q0 -31 18 -57t53.5 -26t57 30.5t21.5 48.5z" />
    <glyph glyph-name="ntilde" unicode="&#xf1;" horiz-adv-x="465" 
d="M171 225l1 -37v-76q0 -107 -4 -111q-13 -13 -45 -20t-52.5 -7t-20.5 3q7 45 7 148l-3 225q0 62 5 67q11 11 38 19.5t50.5 8.5t23.5 -5q-3 -24 -3 -48t3 -24l3 2q5 7 15 17.5t42.5 28t62 17.5t50 -10.5t33.5 -25.5t22.5 -43t14.5 -52t8 -64q3 -55 3 -140l-3 -117
q0 -7 -33 -13.5t-53 -6.5l-33 5q10 90 10 174.5t-11 127t-44 42.5t-53.5 -18t-26.5 -36l-7 -17v-14zM246.5 503q-23.5 7 -48.5 7t-57 -16q-6 8 -6 38t6 36q25 19 51.5 19t47.5 -7t47 -7t47 17q7 0 7 -26q0 -35 -8 -53q-20 -15 -41.5 -15t-45 7z" />
    <glyph glyph-name="ograve" unicode="&#xf2;" 
d="M396.5 43.5q-57.5 -69.5 -156 -69.5t-154.5 61t-56 158.5t69.5 173t187.5 75.5q48 -2 52 -6t4 -19t-3 -33q15 0 38.5 -17.5t38.5 -35.5t26 -50.5t11 -72.5q0 -95 -57.5 -164.5zM308 278q-23 15 -45 15h-8q-2 4 -2 17t3 25q-41 0 -76.5 -37t-35.5 -103q0 -78 50 -108
q19 -12 52.5 -12t63 31t29.5 92t-31 80zM273 488q-10 12 -44.5 43t-54.5 43q0 12 22.5 28.5t38.5 16.5q19 -11 46.5 -49t27.5 -51q-2 -9 -14.5 -20t-21.5 -11z" />
    <glyph glyph-name="oacute" unicode="&#xf3;" 
d="M396.5 43.5q-57.5 -69.5 -156 -69.5t-154.5 61t-56 158.5t69.5 173t187.5 75.5q48 -2 52 -6t4 -19t-3 -33q15 0 38.5 -17.5t38.5 -35.5t26 -50.5t11 -72.5q0 -95 -57.5 -164.5zM308 278q-23 15 -45 15h-8q-2 4 -2 17t3 25q-41 0 -76.5 -37t-35.5 -103q0 -78 50 -108
q19 -12 52.5 -12t63 31t29.5 92t-31 80zM211 488q-9 0 -21.5 11t-14.5 20q0 13 27.5 51t46.5 49q16 0 38.5 -16.5t22.5 -28.5q-20 -12 -54.5 -43t-44.5 -43z" />
    <glyph glyph-name="ocircumflex" unicode="&#xf4;" 
d="M396.5 43.5q-57.5 -69.5 -156 -69.5t-154.5 61t-56 158.5t69.5 173t187.5 75.5q48 -2 52 -6t4 -19t-3 -33q15 0 38.5 -17.5t38.5 -35.5t26 -50.5t11 -72.5q0 -95 -57.5 -164.5zM308 278q-23 15 -45 15h-8q-2 4 -2 17t3 25q-41 0 -76.5 -37t-35.5 -103q0 -78 50 -108
q19 -12 52.5 -12t63 31t29.5 92t-31 80zM242 554q-9 -5 -37 -31t-35 -35q-9 0 -22 11t-15 20q0 13 27.5 51t46.5 49q15 0 35 -13q20 13 34 13q19 -11 46.5 -49t27.5 -51q-2 -9 -15 -20t-22 -11q-5 7 -34 34t-37 32z" />
    <glyph glyph-name="otilde" unicode="&#xf5;" 
d="M396.5 43.5q-57.5 -69.5 -156 -69.5t-154.5 61t-56 158.5t69.5 173t187.5 75.5q48 -2 52 -6t4 -19t-3 -33q15 0 38.5 -17.5t38.5 -35.5t26 -50.5t11 -72.5q0 -95 -57.5 -164.5zM308 278q-23 15 -45 15h-8q-2 4 -2 17t3 25q-41 0 -76.5 -37t-35.5 -103q0 -78 50 -108
q19 -12 52.5 -12t63 31t29.5 92t-31 80zM255.5 493q-23.5 7 -48.5 7t-57 -16q-6 8 -6 38t6 36q25 19 51.5 19t47.5 -7t47 -7t47 17q7 0 7 -26q0 -35 -8 -53q-20 -15 -41.5 -15t-45 7z" />
    <glyph glyph-name="odieresis" unicode="&#xf6;" 
d="M396.5 43.5q-57.5 -69.5 -156 -69.5t-154.5 61t-56 158.5t69.5 173t187.5 75.5q48 -2 52 -6t4 -19t-3 -33q15 0 38.5 -17.5t38.5 -35.5t26 -50.5t11 -72.5q0 -95 -57.5 -164.5zM308 278q-23 15 -45 15h-8q-2 4 -2 17t3 25q-41 0 -76.5 -37t-35.5 -103q0 -78 50 -108
q19 -12 52.5 -12t63 31t29.5 92t-31 80zM200 547q0 -21 -16 -37t-37.5 -16t-35.5 14t-14 36.5t15.5 38t36.5 15.5t36 -15t15 -36zM387 547q0 -21 -15.5 -37t-37 -16t-35.5 14t-14 36.5t15.5 38t36.5 15.5t35.5 -15t14.5 -36z" />
    <glyph glyph-name="divide" unicode="&#xf7;" horiz-adv-x="540" 
d="M321 177q0 -21 -15.5 -37t-37 -16t-35.5 14t-14 36.5t15.5 38t36.5 15.5t35.5 -15t14.5 -36zM306.5 525q14.5 -15 14.5 -36.5t-15.5 -37.5t-37 -16t-35.5 14t-14 36.5t15.5 38.5t36.5 16t35.5 -15zM39 292q-9 10 -9 38.5t11 38.5h461q8 -11 8 -38.5t-10 -38.5h-461z" />
    <glyph glyph-name="oslash" unicode="&#xf8;" 
d="M339 199q0 26 -7 47l-115 -169q14 -2 23 -2q40 0 69.5 31t29.5 93zM303 329q-12 6 -50 6t-73.5 -37t-35.5 -103q0 -44 18 -76zM240 -26q-46 0 -83 14l-20 -30q-15 -3 -37 -3t-42 10l39 58q-67 59 -67 163.5t69.5 180t187.5 75.5q48 -2 52 -6t4 -19t-3 -33l52 77
q15 3 30 3q30 0 50 -10l-71 -106q53 -51 53 -143t-57.5 -161.5t-156.5 -69.5z" />
    <glyph glyph-name="ugrave" unicode="&#xf9;" horiz-adv-x="457" 
d="M296 38l-1 21l-1 2q-24 -37 -60.5 -59t-71.5 -22q-105 0 -120 163q-2 26 -2 134t9 128q26 21 84 21q23 0 28 -5q0 -1 -1 -27q-5 -76 -5 -117t1 -60.5t1.5 -25t3 -19.5t7.5 -24q15 -29 46.5 -29t56 31.5t23.5 44.5v34q0 183 6 197q5 9 31.5 19t52.5 10t30 -4l-2 -47
q-6 -143 -6 -221t4 -99q7 -50 27 -80q0 -10 -41 -32t-70 -22q-8 0 -18 30t-12 58zM251 475q-10 12 -44.5 43t-54.5 43q0 12 22.5 28.5t38.5 16.5q19 -11 46.5 -49t27.5 -51q-2 -9 -14.5 -20t-21.5 -11z" />
    <glyph glyph-name="uacute" unicode="&#xfa;" horiz-adv-x="457" 
d="M161 421q-5 5 -22 5h-6q-53 0 -76 -16l-8 -5q-9 -20 -9 -128t2 -134q15 -163 120 -163q35 0 71.5 22t60.5 59q1 0 1 -2l1 -21q4 -52 22 -80q5 -8 8 -8q29 0 70 22t41 32q-20 30 -27 80q-4 21 -4 79q0 98 6 241l2 47q-4 4 -30 4t-52.5 -10t-31.5 -19q-6 -14 -6 -197v-34
q1 -13 -23.5 -44.5t-53.5 -31.5t-43 20.5t-16 40.5l-1 20q-2 36 -2 64.5t1.5 66.5t3 63.5t1.5 26.5zM220 475q-9 0 -21.5 11t-14.5 20q0 13 27.5 51t46.5 49q16 0 38.5 -16.5t22.5 -28.5q-20 -12 -54.5 -43t-44.5 -43z" />
    <glyph glyph-name="ucircumflex" unicode="&#xfb;" horiz-adv-x="457" 
d="M296 38l-1 21l-1 2q-24 -37 -60.5 -59t-71.5 -22q-105 0 -120 163q-2 26 -2 134t9 128q26 21 84 21q23 0 28 -5q0 -1 -1 -27q-5 -76 -5 -117t1 -60.5t1.5 -25t3 -19.5t7.5 -24q15 -29 46.5 -29t56 31.5t23.5 44.5v34q0 183 6 197q5 9 31.5 19t52.5 10t30 -4l-2 -47
q-6 -143 -6 -221t4 -99q7 -50 27 -80q0 -10 -41 -32t-70 -22q-8 0 -18 30t-12 58zM229 554q-9 -5 -37 -31t-35 -35q-9 0 -22 11t-15 20q0 13 27.5 51t46.5 49q15 0 35 -13q19 13 34 13q19 -11 46.5 -49t27.5 -51q-2 -9 -15 -20t-22 -11q-5 7 -34 34t-37 32z" />
    <glyph glyph-name="udieresis" unicode="&#xfc;" horiz-adv-x="457" 
d="M161 421q-5 5 -22 5h-6q-53 0 -76 -16l-8 -5q-9 -20 -9 -128t2 -134q15 -163 120 -163q35 0 71.5 22t60.5 59q1 0 1 -2l1 -21q4 -52 22 -80q5 -8 8 -8q29 0 70 22t41 32q-20 30 -27 80q-4 21 -4 79q0 98 6 241l2 47q-4 4 -30 4t-52.5 -10t-31.5 -19q-6 -14 -6 -197v-34
q1 -13 -23.5 -44.5t-53.5 -31.5t-43 20.5t-16 40.5l-1 20q-2 36 -2 64.5t1.5 66.5t3 63.5t1.5 26.5zM187 547q0 -21 -16 -37t-37.5 -16t-35.5 14t-14 36.5t15.5 38t36.5 15.5t36 -15t15 -36zM374 547q0 -21 -15.5 -37t-37 -16t-35.5 14t-14 36.5t15.5 38t36.5 15.5t35.5 -15
t14.5 -36z" />
    <glyph glyph-name="yacute" unicode="&#xfd;" horiz-adv-x="457" 
d="M230 484q-9 0 -21.5 11t-14.5 20q0 13 27.5 51t46.5 49q16 0 38.5 -16.5t22.5 -28.5q-20 -12 -54.5 -43t-44.5 -43zM298 69l1 -29q0 -110 -31 -159q-15 -25 -30 -41.5t-38 -25.5q-53 -20 -91 -20q0 -22 8 -47.5t17 -40.5t12 -15q64 0 126 35q38 21 67.5 54t50 94
t20.5 139l-1 266q0 115 8 162q0 3 -20 3t-52.5 -7t-45.5 -20q-5 -5 -5 -92l2 -121q0 -7 -7 -23.5t-15 -26.5q-22 -27 -57.5 -27t-49.5 45t-14 113t11 167q-13 5 -32.5 5t-39.5 -5q-41 -9 -41 -16q-11 -51 -11 -106t0.5 -82t3 -65t7.5 -60t14 -47.5t23 -39.5q30 -32 73.5 -32
t74.5 17t44 34l12 17q2 3 4 3t2 -6z" />
    <glyph glyph-name="thorn" unicode="&#xfe;" horiz-adv-x="458" 
d="M168 672l-1 -234q266 0 266 -206q0 -56 -22.5 -101.5t-55.5 -72t-72 -44.5q-67 -31 -120 -31v-15q0 -150 8 -200q-13 -13 -45 -20.5t-52 -7.5t-20 3q-4 32 -4 132l5 465q0 270 -3 301q12 12 40.5 23t49.5 11t26 -3zM163 144l1 -50q61 0 107 35t46 101q0 108 -151 108v-13
q-2 -39 -2 -79z" />
    <glyph glyph-name="ydieresis" unicode="&#xff;" horiz-adv-x="457" 
d="M187 547q0 -21 -16 -37t-37.5 -16t-35.5 14t-14 36.5t15.5 38t36.5 15.5t36 -15t15 -36zM374 547q0 -21 -15.5 -37t-37 -16t-35.5 14t-14 36.5t15.5 38t36.5 15.5t35.5 -15t14.5 -36zM298 69l1 -29q0 -110 -31 -159q-15 -25 -30 -41.5t-38 -25.5q-53 -20 -91 -20
q0 -22 8 -47.5t17 -40.5t12 -15q64 0 126 35q38 21 67.5 54t50 94t20.5 139l-1 266q0 115 8 162q0 3 -20 3t-52.5 -7t-45.5 -20q-5 -5 -5 -92l2 -121q0 -7 -7 -23.5t-15 -26.5q-22 -27 -57.5 -27t-49.5 45t-14 113t11 167q-13 5 -32.5 5t-39.5 -5q-41 -9 -41 -16
q-11 -51 -11 -106t0.5 -82t3 -65t7.5 -60t14 -47.5t23 -39.5q30 -32 73.5 -32t74.5 17t44 34l12 17q2 3 4 3t2 -6z" />
    <glyph glyph-name="dotlessi" unicode="&#x131;" horiz-adv-x="220" 
d="M172 348l-2 -162q0 -78 4.5 -114.5t25.5 -68.5q0 -10 -41 -32t-70 -22q-9 0 -18 30t-11.5 57t-2.5 182t7 169q23 18 81 18q23 0 28 -6z" />
    <glyph glyph-name="Lslash" unicode="&#x141;" horiz-adv-x="547" 
d="M203 447l51 30q18 -25 18 -39.5t-1 -17.5l-69 -42q-2 -116 -2 -179t3 -100q16 -4 51.5 -4t61 6t43 21.5t28.5 29t19 40.5q12 36 24 95q0 1 14.5 1t46 -13.5t31.5 -20.5q0 -77 -8 -174q-8 -108 -19.5 -108t-44.5 8.5t-50 15.5q-90 -15 -233 -16l-50 -1l-40 5q-4 4 -4 64
t1.5 147t1.5 108l-35 -20q-18 24 -18 47q0 7 1 10l52 31q1 30 1 115.5t-5.5 93t-18.5 38t-13 39.5q0 4 22 11q55 20 97 20t44.5 -3t2.5 -44.5t-1.5 -105.5t-1.5 -88z" />
    <glyph glyph-name="lslash" unicode="&#x142;" horiz-adv-x="247" 
d="M174 413l-2 -245q0 -69 2 -85q5 -44 29 -80q0 -10 -41 -32t-70 -22q-8 0 -18 30t-12 52t-2 86t1.5 142.5t1.5 105.5l-45 -27q-18 19 -18 42q0 7 1 10l63 38v76q0 79 -2 107t-2 30q0 10 33.5 23t59.5 13t26 -4q-3 -16 -5 -179l55 33q18 -20 18 -42q0 -7 -1 -10l-72 -44
v-18z" />
    <glyph glyph-name="OE" unicode="&#x152;" horiz-adv-x="946" 
d="M505 333q0 235 -140 235q-40 0 -61.5 -23t-21.5 -58.5t22.5 -83.5t45.5 -76l22 -28q0 -12 -37 -22.5t-59 -10.5q-5 0 -20.5 19t-36 58.5t-29.5 83.5q-15 -15 -24 -61t-9 -89q0 -84 47 -143.5t119 -59.5q182 0 182 259zM809 93q63 0 85 3.5t22 2.5q0 -24 -16 -57t-34 -50
q-10 -10 -179.5 -10t-175.5 8q-2 1 -4 30q-73 -50 -185 -50q-149 0 -220.5 86t-71.5 216q0 63 15 118t28 78t21 27.5t63 4.5h19q0 50 19.5 87t50.5 55q58 33 110 33q90 0 152 -38v21q120 6 254.5 6t134.5 -4q0 -21 -9.5 -46t-20 -40t-15 -13.5t-41 1.5t-101.5 -4.5
t-71 -10.5t-6 -110l1 -42q40 1 118 1t78 -3q0 -36 -24 -82q-9 -16 -11 -15q-26 0 -89 -4.5t-73 -10.5q-1 -1 -1 -84t5 -88q16 -16 172 -16z" />
    <glyph glyph-name="oe" unicode="&#x153;" horiz-adv-x="735" 
d="M588 318q0 29 -35.5 29t-66.5 -40.5t-32 -96.5v-2q0 -18 4 -18q36 1 83 41.5t47 86.5zM308 278q-23 15 -45 15h-8q-2 4 -2 17t3 25q-41 0 -76.5 -37t-35.5 -103q0 -78 50 -108q19 -12 52.5 -12t63 31t29.5 92t-31 80zM390 36q-60 -62 -154 -62t-150 61t-56 158.5
t69.5 173t187.5 75.5q48 -2 52 -6t4 -19t-3 -33q26 -7 52 -28q68 81 187 81q47 0 86.5 -25t39.5 -87.5t-54.5 -123.5t-148.5 -93q0 -12 24.5 -19.5t48.5 -7.5q76 0 120 27q1 1 3 1t2 -19q0 -58 -25 -90q-34 -23 -131 -23t-154 59z" />
    <glyph glyph-name="Scaron" unicode="&#x160;" horiz-adv-x="519" 
d="M270 778q9 5 36 30.5t36 35.5q9 0 22 -11t15 -20q0 -12 -28 -50t-46 -50q-16 0 -35 14q-21 -14 -34 -14q-19 12 -46.5 50t-27.5 50q2 9 14.5 20t21.5 11q8 -9 36 -35t36 -31zM413 571q-16 2 -36.5 2t-50 -4t-61 -12.5t-51.5 -26.5t-20 -43.5t30.5 -45t73.5 -36
t86.5 -37.5t74 -61.5t30.5 -97.5q0 -101 -96.5 -171.5t-243.5 -70.5q-74 0 -110 8q-9 9 -9 107.5t4 118.5q3 9 35 22t62 13q0 -118 25 -143q10 -10 38 -10q64 0 111.5 36t47.5 85q0 33 -31 58t-75.5 43.5t-88.5 39t-75 56.5t-31 85q0 73 87.5 133.5t253.5 60.5q39 0 44 -5
q1 -3 1 -14.5t-7 -44.5t-18 -45z" />
    <glyph glyph-name="scaron" unicode="&#x161;" horiz-adv-x="356" 
d="M331 115q0 -54 -50.5 -96.5t-109 -61t-102.5 -18.5q-5 0 -14 12q-25 33 -25 77v7q78 0 119 27t41 56q0 19 -25 40t-55 37t-55 42.5t-25 55.5q0 61 76 112t162 51q10 0 26 -27.5t17 -56.5q-20 0 -60 -12q-79 -25 -79 -62q0 -26 78 -71q30 -17 55 -47t26 -65zM178 553
q9 5 36 30.5t36 35.5q9 0 22 -11t15 -20q0 -12 -28 -50t-46 -50q-16 0 -35 14q-21 -14 -34 -14q-19 12 -46.5 50t-27.5 50q2 9 14.5 20t21.5 11q8 -9 36 -35t36 -31z" />
    <glyph glyph-name="Ydieresis" unicode="&#x178;" horiz-adv-x="624" 
d="M243 -30l3 275v13q-28 39 -99.5 167.5t-77.5 136.5q-23 23 -63 23q-1 2 -1 11t6.5 28.5t9 22t18.5 5.5q43 8 87 8t46.5 -2t27.5 -55q78 -166 115 -222h2q6 22 85.5 159t92.5 137q30 0 60 -8t47 -17.5t16 -15.5q-53 -59 -140.5 -189.5t-103.5 -188.5q-2 -20 -2 -129
t8 -143q0 -12 -32 -18t-62.5 -6t-42.5 8zM270 747q0 -21 -16 -37t-37.5 -16t-35.5 14t-14 36.5t15.5 38t36.5 15.5t36 -15t15 -36zM457 747q0 -21 -15.5 -37t-37 -16t-35.5 14t-14 36.5t15.5 38t36.5 15.5t35.5 -15t14.5 -36z" />
    <glyph glyph-name="Zcaron" unicode="&#x17d;" horiz-adv-x="574" 
d="M319 785q9 5 36 30.5t36 35.5q9 0 22 -11t15 -20q0 -12 -28 -50t-46 -50q-16 0 -35 14q-21 -14 -34 -14q-19 12 -46.5 50t-27.5 50q2 9 14.5 20t21.5 11q8 -9 36 -35t36 -31zM554 199q0 -45 -20 -126.5t-29 -89.5q-3 -3 -14 -3q-22 0 -69 10l-15 4q-8 1 -41 1l-313 -9
q-10 0 -21.5 28t-11.5 45t1 21q16 34 99.5 147t157.5 212.5t74 110.5q0 6 -74.5 6t-104.5 -15q-14 -5 -54 -75l-13 -22q-14 0 -39.5 15t-25.5 23q0 24 10.5 72t23 86t16.5 38q28 0 57 -12.5t31 -12.5q90 13 201.5 13t129.5 -6q8 -7 18.5 -31t10.5 -54q0 -3 -8 -11
q-62 -70 -191.5 -253t-129.5 -205q0 -7 83.5 -7t109.5 16q16 14 44 57t37 69q0 2 8.5 2t35 -16t26.5 -28z" />
    <glyph glyph-name="zcaron" unicode="&#x17e;" horiz-adv-x="438" 
d="M392 -5q-38 3 -102 3q-118 0 -202 -14l-28 -4q-8 0 -19 28t-11 49q10 36 88 138t116 138q9 9 -43 15t-90.5 6t-47.5 -1q0 47 9.5 67t12.5 23q9 9 88.5 9t146.5 -7t73 -13q19 -28 19 -81q-52 -39 -120 -130t-68 -111q39 0 113.5 -7t80.5 -14v-11q0 -67 -16 -83zM237 553
q9 5 36 30.5t36 35.5q9 0 22 -11t15 -20q0 -12 -28 -50t-46 -50q-16 0 -35 14q-21 -14 -34 -14q-19 12 -46.5 50t-27.5 50q2 9 14.5 20t21.5 11q8 -9 36 -35t36 -31z" />
    <glyph glyph-name="circumflex" unicode="&#x2c6;" 
d="M240 554q-9 -5 -37 -31t-35 -35q-9 0 -22 11t-15 20q0 13 27.5 51t46.5 49q15 0 35 -13q20 13 34 13q19 -11 46.5 -49t27.5 -51q-2 -9 -15 -20t-22 -11q-5 7 -34 34t-37 32z" />
    <glyph glyph-name="caron" unicode="&#x2c7;" 
d="M242 553q9 5 36 30.5t36 35.5q9 0 22 -11t15 -20q0 -12 -28 -50t-46 -50q-16 0 -35 14q-21 -14 -34 -14q-19 12 -46.5 50t-27.5 50q2 9 14.5 20t21.5 11q8 -9 36 -35t36 -31z" />
    <glyph glyph-name="breve" unicode="&#x2d8;" 
d="M298 579h51q0 -29 -28.5 -52.5t-65.5 -23.5t-62.5 21t-25.5 55h51q0 -15 11.5 -25.5t27.5 -10.5t28.5 11.5t12.5 24.5z" />
    <glyph glyph-name="dotaccent" unicode="&#x2d9;" horiz-adv-x="220" 
d="M166 579q17 -18 17 -47t-22.5 -49.5t-50 -20.5t-44 17.5t-16.5 46.5t22 50t49.5 21t44.5 -18z" />
    <glyph glyph-name="ring" unicode="&#x2da;" 
d="M258.5 573.5q-8.5 8.5 -20 8.5t-20.5 -9t-9 -21.5t8 -20.5t20 -8t21 9t9 21t-8.5 20.5zM304 554q0 -27 -20.5 -47.5t-47.5 -20.5t-45.5 18t-18.5 46.5t20 49t47 20.5t46 -19.5t19 -46.5z" />
    <glyph glyph-name="ogonek" unicode="&#x2db;" horiz-adv-x="291" 
d="M172 -94q16 0 29 9q3 -6 3 -18t-3 -18q-9 -9 -39 -9t-46.5 16.5t-16.5 41.5q0 46 32 78q4 2 24.5 2t19.5 -4q-34 -29 -34 -69q0 -29 31 -29z" />
    <glyph glyph-name="tilde" unicode="&#x2dc;" horiz-adv-x="465" 
d="M246.5 503q-23.5 7 -48.5 7t-57 -16q-6 8 -6 38t6 36q25 19 51.5 19t47.5 -7t47 -7t47 17q7 0 7 -26q0 -35 -8 -53q-20 -15 -41.5 -15t-45 7z" />
    <glyph glyph-name="hungarumlaut" unicode="&#x2dd;" horiz-adv-x="459" 
d="M285 488q-9 0 -21.5 11t-14.5 20q0 13 27.5 51t46.5 49q16 0 38.5 -16.5t22.5 -28.5q-20 -12 -54.5 -43t-44.5 -43zM158 488q-9 0 -21.5 11t-14.5 20q0 13 27.5 51t46.5 49q16 0 38.5 -16.5t22.5 -28.5q-20 -12 -54.5 -43t-44.5 -43z" />
    <glyph glyph-name="pi" unicode="&#x3c0;" horiz-adv-x="459" 
d="M276 308l1 22v4q-6 -2 -41.5 -7t-55.5 -5q0 -118 -9 -204t-19 -112l-9 -27q-8 -8 -40 -11l-11 -1q-50 0 -64 14l-5 5q36 62 52 165.5t16 169.5q-36 4 -68 20l-3 18q0 39 18 66l6 9q48 -23 117 -23t147.5 16.5t97 16.5t25.5 -2q8 -12 8 -46t-9 -43q-10 2 -31 2t-24 -3
q-2 -27 -2 -80q0 -189 66 -270q-42 -42 -114 -42q-49 36 -49 310v38z" />
    <glyph glyph-name="endash" unicode="&#x2013;" horiz-adv-x="469" 
d="M39 156q-9 10 -9 38.5t11 38.5h390q8 -11 8 -39t-9 -38h-391z" />
    <glyph glyph-name="emdash" unicode="&#x2014;" horiz-adv-x="624" 
d="M39 156q-9 10 -9 38.5t11 38.5h545q8 -11 8 -39t-9 -38h-546z" />
    <glyph glyph-name="quoteleft" unicode="&#x2018;" horiz-adv-x="184" 
d="M104 677q50 0 50 -58q-5 -61 -64 -61q0 -43 37 -73q-14 -22 -46 -22q-5 0 -16 8.5t-17 18.5q-18 29 -18 74t19.5 79t54.5 34z" />
    <glyph glyph-name="quoteright" unicode="&#x2019;" horiz-adv-x="340" 
d="M295.5 655q14.5 -22 14.5 -58t-16 -70t-32 -49t-27.5 -15t-23 7t-15.5 15q45 32 50 73q-55 0 -55 61q2 26 19 42t44 16t41.5 -22z" />
    <glyph glyph-name="quotesinglbase" unicode="&#x201a;" horiz-adv-x="181" 
d="M146 43q0 -64 -25 -99.5t-47 -40.5q-30 0 -42 23q45 32 50 73q-55 0 -55 52q0 28 16.5 47.5t45 19.5t43 -22.5t14.5 -52.5z" />
    <glyph glyph-name="quotedblleft" unicode="&#x201c;" horiz-adv-x="342" 
d="M262 677q50 0 50 -58q-5 -61 -64 -61q0 -43 37 -73q-14 -22 -46 -22q-5 0 -16 8.5t-17 18.5q-18 29 -18 74t19.5 79t54.5 34zM104 677q50 0 50 -58q-5 -61 -64 -61q0 -43 37 -73q-14 -22 -46 -22q-5 0 -16 8.5t-17 18.5q-18 29 -18 74t19.5 79t54.5 34z" />
    <glyph glyph-name="quotedblright" unicode="&#x201d;" horiz-adv-x="340" 
d="M295.5 655q14.5 -22 14.5 -58t-16 -70t-32 -49t-27.5 -15t-23 7t-15.5 15q45 32 50 73q-55 0 -55 61q2 26 19 42t44 16t41.5 -22zM134.5 655q14.5 -22 14.5 -58t-16 -70t-32 -49t-27.5 -15t-23 7t-15.5 15q45 32 50 73q-55 0 -55 61q2 26 19 42t44 16t41.5 -22z" />
    <glyph glyph-name="quotedblbase" unicode="&#x201e;" horiz-adv-x="342" 
d="M292.5 97q14.5 -22 14.5 -58t-16 -70t-32 -49t-27.5 -15t-23 7t-15.5 15q45 32 50 73q-55 0 -55 61q2 26 19 42t44 16t41.5 -22zM131.5 97q14.5 -22 14.5 -58t-16 -70t-32 -49t-27.5 -15t-23 7t-15.5 15q45 32 50 73q-55 0 -55 61q2 26 19 42t44 16t41.5 -22z" />
    <glyph glyph-name="dagger" unicode="&#x2020;" horiz-adv-x="405" 
d="M163 -42v559h-136q-7 11 -7 39t8 38h135v100q13 13 38 13q21 0 28 -3t11 -4v-106h139q6 -11 6 -38t-8 -39h-137v-558q-9 -9 -24 -9h-18q-13 0 -19 2t-8 2.5t-3 1.5q-4 0 -5 2z" />
    <glyph glyph-name="daggerdbl" unicode="&#x2021;" horiz-adv-x="405" 
d="M27 67q-7 11 -7 39t8 38h135v373h-136q-7 11 -7 39t8 38h135v100q13 13 38 13q21 0 28 -3t11 -4v-106h139q6 -11 6 -38t-8 -39h-137v-373h139q6 -11 6 -38t-8 -39h-137v-108q-9 -9 -24 -9h-18q-13 0 -19 2t-8 2.5t-3 1.5q-4 0 -5 2v109h-136z" />
    <glyph glyph-name="bullet" unicode="&#x2022;" horiz-adv-x="255" 
d="M215 221q0 -36 -27 -64t-63 -28t-60.5 24.5t-24.5 62.5t27.5 65t62.5 27t60 -25.5t25 -61.5z" />
    <glyph glyph-name="ellipsis" unicode="&#x2026;" horiz-adv-x="618" 
d="M583 55q0 -24 -18 -42.5t-42.5 -18.5t-40.5 16.5t-16 42t17.5 43t41.5 17.5t41 -17t17 -41zM367 55q0 -24 -18 -42.5t-42 -18.5t-40.5 16.5t-16.5 42t18 43t41.5 17.5t40.5 -17t17 -41zM152 55q0 -24 -18.5 -42.5t-42.5 -18.5t-40 16.5t-16 42t17.5 43t41.5 17.5t41 -17
t17 -41z" />
    <glyph glyph-name="perthousand" unicode="&#x2030;" horiz-adv-x="909" 
d="M845 250q34 -50 34 -119.5t-38.5 -103.5t-90.5 -34q-128 0 -128 146q0 61 34 111t94.5 50t94.5 -50zM555 250q34 -50 34 -119.5t-38.5 -103.5t-90.5 -34q-128 0 -128 146q0 61 34 111t94.5 50t94.5 -50zM252 617q34 -50 34 -119t-38.5 -103.5t-89.5 -34.5
q-128 0 -128 146q0 62 33.5 111.5t94 49.5t94.5 -50zM59 1l423 665q10 2 20 2q20 0 54 -19l-423 -665q-10 -2 -19 -2t-24 4.5t-31 14.5zM750 51q29 0 45 22t16 66t-17.5 72.5t-43 28.5t-43 -28.5t-17.5 -74.5q0 -86 60 -86zM460 51q29 0 45 22t16 66t-17.5 72.5t-43 28.5
t-43 -28.5t-17.5 -74.5q0 -86 60 -86zM158 418q60 0 60 86q0 46 -17.5 74.5t-42.5 28.5t-42.5 -28.5t-17.5 -74.5q0 -86 60 -86z" />
    <glyph glyph-name="guilsinglleft" unicode="&#x2039;" horiz-adv-x="327" 
d="M122 225q0 -17 78 -109t110 -118q2 -2 2 -4q-2 -7 -41 -7l-46 4q-21 0 -118 107t-97 125.5t98.5 126.5t116.5 108q22 4 46 4t32 -2q11 -4 7 -8q-32 -27 -110 -118.5t-78 -108.5z" />
    <glyph glyph-name="guilsinglright" unicode="&#x203a;" horiz-adv-x="327" 
d="M205 218q0 17 -78 108.5t-110 118.5q-2 1 -1 3q1 7 40 7l46 -4q18 0 116.5 -108t98.5 -126.5t-97 -125.5t-118 -107q-22 -4 -46 -4t-32 2q-12 4 -7 9q32 26 110 118t78 109z" />
    <glyph glyph-name="fraction" unicode="&#x2044;" horiz-adv-x="538" 
d="M5 -27l457 721q13 4 26 4q25 0 45 -12l-460 -721q-17 -3 -29 -3q-24 0 -39 11z" />
    <glyph glyph-name="foursuperior" unicode="&#x2074;" horiz-adv-x="332" 
d="M273 371q0 -65 6 -91q0 -5 -24 -11t-41 -6l-14 1q-3 3 -3 22.5t2 83.5q-42 -2 -102.5 -2t-64.5 2q-10 10 -12 45q0 15 66 114.5t101 138.5q5 9 39 9t34 -3t-17.5 -23.5t-17.5 -23.5q50 -1 50 -8q-3 -98 -3 -189q28 0 34 1t6 -2q0 -15 -8 -33.5t-12 -22.5zM142 428l60 1
q3 73 3 119.5t-2 46.5q-10 -10 -56 -80t-46 -84q0 -3 41 -3z" />
    <glyph glyph-name="Euro" unicode="&#x20ac;" horiz-adv-x="545" 
d="M421 82q60 0 100 11l4 -28q0 -46 -17 -69q-6 -6 -86 -9l-26 -1q-151 0 -217.5 58t-79.5 180h-79q0 46 25 71h49v66h-74q0 46 25 71h54q15 121 81.5 179.5t215.5 58.5q106 -4 112 -10q17 -16 17 -69q0 -20 -4 -28q-27 11 -100 11q-106 0 -149.5 -32.5t-53.5 -109.5h200
q0 -45 -25 -71h-180v-66h205q0 -45 -25 -71h-175q10 -77 53.5 -109.5t149.5 -32.5z" />
    <glyph glyph-name="trademark" unicode="&#x2122;" horiz-adv-x="369" 
d="M35 401l96 4l21 -1q0 -26 -4 -30q-17 1 -28.5 1t-12.5 -1q-1 -22 -1 -75t7 -67l-11 -5l-18 -2l-10 3q-1 1 -1 15l3 119q0 4 -1 12l-44 -4l-1 7zM306 226l1 27q0 82 -4 98h-2q-8 -14 -25 -71l-6 -17q-2 -3 -11 -3t-10 1.5t-16 43.5t-17 45h-2q-5 -21 -5 -57t1 -49v-12
q-6 -6 -25 -6l-9 1l10 146q-10 12 -10 26q2 2 27.5 2t26.5 -1t28 -78q0 -2 2 0q3 10 16 42t16 35t25 3t22 -1q0 -17 -9 -29q9 -80 9 -141q0 -1 -10 -3.5t-16.5 -2.5t-6.5 1z" />
    <glyph glyph-name="minus" unicode="&#x2212;" horiz-adv-x="539" 
d="M39 292q-9 10 -9 38.5t11 38.5h460q8 -11 8 -39t-9 -38h-461z" />
    <glyph glyph-name="notequal" unicode="&#x2260;" horiz-adv-x="535" 
d="M158 93q-29 15 -34 30l38 77h-123q-9 11 -9 39t11 38h160l51 103h-213q-9 11 -9 39t11 38h250l57 115h5q15 0 37 -11t26 -25l-39 -79h120q8 -11 8 -38.5t-10 -38.5h-157l-51 -103h210q8 -11 8 -38.5t-10 -38.5h-247l-56 -113q-4 -1 -13 -1t-21 7z" />
    <glyph glyph-name="lessequal" unicode="&#x2264;" horiz-adv-x="485" 
d="M461 302v-4q0 -46 -29 -73q-83 35 -318 89l-79 19q-5 18 -4 45.5t12 38.5q306 138 378 146q3 1 9 -7q19 -21 19 -54q-2 -16 -2 -19q-41 -11 -134.5 -40.5t-135.5 -51.5q-6 -3 -6 -4.5t4 -2.5q273 -69 286 -82zM465 148q0 -23 -13 -37h-416q-6 17 -6 39.5t13 35.5h416
q6 -15 6 -38z" />
    <glyph glyph-name="greaterequal" unicode="&#x2265;" horiz-adv-x="486" 
d="M25 302q12 12 217 64l68 18q6 1 6 2.5t-7 4.5q-72 37 -270 92l-2 19q0 33 19 54q6 8 9 7q32 -4 126.5 -40.5t172.5 -70.5l79 -35q10 -10 11 -41l1 -10l-4 -33q-306 -70 -398 -108q-29 26 -29 71q0 6 1 6zM20 148q0 -23 14 -37h416q6 17 6 39t-13 36h-416q-7 -15 -7 -38z
" />
    <glyph glyph-name="apple" unicode="&#xf8ff;" horiz-adv-x="695" 
d="M477 718l-99 -93q-14 3 -29 3t-32 -3l-99 93h65l63 -67l65 67h66zM593.5 485.5q101.5 -102.5 101.5 -246t-103 -245t-244 -101.5q-98 0 -179 49.5t-125 129t-44 169.5q0 147 103.5 247t246 100t244 -102.5zM559 31.5q86 88.5 86 212t-89 209.5t-212 86t-208.5 -90
t-85.5 -211.5t88.5 -208t211.5 -86.5t209 88.5zM504 131q0 -59 -50 -89t-112.5 -30t-150.5 43l10 52q72 -45 141 -45q44 0 71.5 18t27.5 50q0 41 -103 90q-102 50 -125 90q-12 21 -12 46q0 59 44.5 86.5t99.5 27.5q49 0 105 -32q25 -14 29 -16l-13 -47q-52 46 -117 46
q-39 0 -63.5 -17t-24.5 -41.5t20.5 -43t63.5 -39t75.5 -34.5t58 -43.5t25.5 -71.5z" />
    <glyph glyph-name="fi" unicode="&#xfb01;" horiz-adv-x="520" 
d="M181 386l5 -400q0 -39 -2 -49q-38 -28 -101 -28l-28 5q15 111 15 410q0 75 -1 110l-44 -2q-5 5 -5 44t9 48q18 1 39 2l-2 121q-2 16 74 53t124 37q6 0 15.5 -22.5t9.5 -35t-1 -15.5q-3 0 -26 -10.5t-48 -27t-26 -28.5q-4 -26 -6 -71h4q81 0 81 -3q0 -47 -19 -78
q-7 -12 -12 -12q-32 2 -55 2v-50zM432 348l-2 -162q0 -78 4.5 -114.5t25.5 -68.5q0 -10 -41 -32t-70 -22q-9 0 -18 30t-11.5 57t-2.5 182t7 169q23 18 81 18q23 0 28 -6zM426 579q17 -18 17 -47t-22.5 -49.5t-50 -20.5t-44 17.5t-16.5 46.5t22 50t49.5 21t44.5 -18z" />
    <glyph glyph-name="fl" unicode="&#xfb02;" horiz-adv-x="489" 
d="M181 386l5 -400q0 -39 -2 -49q-38 -28 -101 -28l-28 5q15 111 15 410q0 75 -1 110l-44 -2q-5 5 -5 44t9 48q18 1 39 2l-2 121q-2 16 74 53t124 37q6 0 15.5 -22.5t9.5 -35t-1 -15.5q-3 0 -26 -10.5t-48 -27t-26 -28.5q-4 -26 -6 -71h4q81 0 81 -3q0 -47 -19 -78
q-7 -12 -12 -12q-32 2 -55 2v-50zM428 168l2 245q0 223 5 260q0 4 -26 4t-59.5 -13t-33.5 -23q0 -2 1 -16q3 -42 3 -121l-4 -362q0 -89 2 -111t9 -43q13 -39 21 -39q29 0 70 22t41 32q-24 36 -29 80q-2 16 -2 85z" />
    </font>
</defs>
</svg>
