<?xml version="1.0" standalone="no"?>
<!DOCTYPE svg PUBLIC "-//W3C//DTD SVG 1.1//EN" "http://www.w3.org/Graphics/SVG/1.1/DTD/svg11.dtd" >
<svg xmlns="http://www.w3.org/2000/svg" xmlns:xlink="http://www.w3.org/1999/xlink" version="1.1">
<metadata>
Created by FontForge 20150102 at Tue Feb 17 15:25:39 2015
 By uniteet7
Copyright (c) 2012 by Brian J. Bonislawsky DBA Astigmatic (AOETI) (astigma@astigmatic.com), with ReservedFont Name "Sacramento"
</metadata>
<defs>
<font id="Sacramento-Regular" horiz-adv-x="500" >
  <font-face 
    font-family="Sacramento"
    font-weight="400"
    font-stretch="normal"
    units-per-em="2048"
    panose-1="2 0 5 7 0 0 0 2 0 0"
    ascent="1638"
    descent="-410"
    x-height="483"
    cap-height="1550"
    bbox="-363 -1084 3388 1905"
    underline-thickness="20"
    underline-position="-113"
    unicode-range="U+0020-FB02"
  />
<missing-glyph 
 />
    <glyph glyph-name="fi" unicode="fi" horiz-adv-x="885" 
d="M116 -49q74 33 134.5 76t108 90.5t81 97t53.5 94.5q1 2 1.5 3.5t2.5 3.5q4 84 15 170q2 14 12.5 24.5t27.5 10.5q15 0 25 -11.5t10 -26.5q0 -6 -2.5 -36t-6 -71.5t-6 -88t-2.5 -85.5q0 -53 10.5 -85.5t27 -50.5t35 -24t35.5 -6q28 0 58 20t61.5 56t63.5 86.5t63 112.5
q5 10 14 15.5t20 5.5q16 0 26.5 -12t10.5 -26q0 -10 -4 -17q-12 -23 -30 -56t-41 -68t-50.5 -69.5t-58.5 -62t-65 -44.5t-69 -17q-41 0 -73 15.5t-54.5 42.5t-36 64t-17.5 80q-52 -75 -133.5 -145t-201.5 -126q54 -56 94 -124.5t66.5 -142.5t40 -149.5t13.5 -144.5
q0 -63 -11.5 -118.5t-34 -96.5t-54.5 -64.5t-73 -23.5q-60 0 -93 44.5t-48.5 123t-18 185t-2.5 231.5v144.5t0.5 177t1 198t1.5 207.5t2 204.5t3 190.5q3 172 12 307t29 228t54.5 141.5t87.5 48.5q42 0 71 -23.5t47 -63t26 -92.5t8 -111q0 -122 -21 -236t-57 -221
t-84.5 -209t-103.5 -201v-88.5v-95t-0.5 -91t-0.5 -75.5zM119 455q41 77 75.5 162.5t59.5 176.5t39 186t14 191q0 48 -4.5 87t-14 66.5t-24 43t-33.5 15.5q-20 0 -35 -24t-26 -64t-18.5 -92t-12.5 -108.5t-8 -113t-4.5 -106t-2 -87.5t-0.5 -57q-1 -40 -1.5 -71t-1.5 -61
t-1.5 -64t-0.5 -80zM116 -172q0 -63 -0.5 -117.5t-0.5 -99.5q0 -93 1 -184t9.5 -163.5t26 -117t50.5 -44.5q30 0 49 27t29.5 64t14.5 75.5t4 62.5q0 61 -11.5 128t-35 132.5t-57.5 126.5t-79 110zM656 785q0 -38 -26.5 -64.5t-64.5 -26.5t-64.5 26.5t-26.5 64.5q0 19 7 35.5
t19.5 29t29 19.5t35.5 7t35.5 -7t29 -19.5t19.5 -29t7 -35.5zM600 785q0 14 -10.5 24.5t-24.5 10.5t-24 -10.5t-10 -24.5t10 -24t24 -10t24.5 10t10.5 24z" />
    <glyph glyph-name="fl" unicode="fl" horiz-adv-x="956" 
d="M1062 277q-11 -23 -27.5 -54.5t-37.5 -65.5t-47 -67.5t-56.5 -60t-65 -43t-73.5 -16.5q-43 0 -77.5 19.5t-61.5 54t-47 81t-35 99.5q-24 -44 -58.5 -89t-80 -88t-104 -83t-130.5 -73q54 -56 94 -124.5t66.5 -142.5t40 -149.5t13.5 -144.5q0 -63 -11.5 -118.5t-34 -96.5
t-54.5 -64.5t-73 -23.5q-60 0 -93 44.5t-48.5 123t-18 185t-2.5 231.5v144.5t0.5 177t1 198t1.5 207.5t2 204.5t3 190.5q3 172 12 307t29 228t54.5 141.5t87.5 48.5q42 0 71 -23.5t47 -63t26 -92.5t8 -111q0 -122 -21 -236t-57 -221t-84.5 -209t-103.5 -201v-88.5v-95
t-0.5 -91t-0.5 -75.5q74 33 134.5 76t108 90.5t81 97t53.5 94.5q6 13 19 19q-17 96 -22 190.5t-5 165.5q0 84 5.5 174t17.5 176t30.5 163t44 135t58.5 92t75 34q33 0 59.5 -15.5t44.5 -50.5t28 -91t10 -137q0 -100 -21 -206.5t-57 -214.5t-85 -215.5t-105 -209.5
q25 -127 67 -199.5t101 -72.5q40 0 77 31.5t68 74.5t54.5 87.5t36.5 71.5q5 10 14 15.5t20 5.5q17 0 27.5 -12t10.5 -27q0 -6 -4 -16zM561 679q0 -64 3 -123t8 -113q42 81 80 172.5t67 185t46.5 186t17.5 176.5q0 118 -19 169t-51 51q-21 0 -40.5 -29t-36.5 -79t-31 -118
t-23.5 -146t-15 -163t-5.5 -169zM119 455q41 77 75.5 162.5t59.5 176.5t39 186t14 191q0 48 -4.5 87t-14 66.5t-24 43t-33.5 15.5q-20 0 -35 -24t-26 -64t-18.5 -92t-12.5 -108.5t-8 -113t-4.5 -106t-2 -87.5t-0.5 -57q-1 -40 -1.5 -71t-1.5 -61t-1.5 -64t-0.5 -80z
M116 -172q0 -63 -0.5 -117.5t-0.5 -99.5q0 -93 1 -184t9.5 -163.5t26 -117t50.5 -44.5q30 0 49 27t29.5 64t14.5 75.5t4 62.5q0 61 -11.5 128t-35 132.5t-57.5 126.5t-79 110z" />
    <glyph glyph-name=".notdef" 
 />
    <glyph glyph-name=".null" horiz-adv-x="0" 
 />
    <glyph glyph-name="nonmarkingreturn" horiz-adv-x="450" 
 />
    <glyph glyph-name="space" unicode=" " horiz-adv-x="450" 
 />
    <glyph glyph-name="D" unicode="D" horiz-adv-x="2094" 
d="M936 1471q123 0 251 -22.5t249 -68.5t228 -115.5t187 -162.5t126.5 -210t46.5 -259t-50 -263t-140 -209t-215 -138t-275 -50q-71 0 -147 10.5t-152 32.5t-149.5 54.5t-140.5 77.5q-79 -78 -182.5 -121.5t-218.5 -43.5q-62 0 -116 14t-93.5 40t-62 63t-22.5 82
q0 39 19.5 73t55 60t85 41t108.5 15q174 0 412 -128q44 55 72 124q31 77 48.5 158.5t31 162.5t28 158t40 145t67 124.5t108.5 96.5q10 5 18 5q14 0 26.5 -10t12.5 -28q0 -21 -19 -32q-53 -31 -86.5 -77.5t-55.5 -104.5t-35 -125t-25 -140q-10 -60 -22 -125.5t-30 -130
t-45.5 -126t-67.5 -113.5q2 -1 2.5 -1.5t2.5 -1.5q127 -76 264 -115t268 -39q142 0 254.5 47t190.5 126.5t119 185.5t41 224q0 120 -40 223.5t-109.5 188.5t-165 151t-206 110.5t-232 68t-243.5 23.5q-164 0 -299.5 -27.5t-233 -80.5t-151.5 -130t-54 -175q0 -56 16.5 -99
t42 -74.5t55.5 -53.5t56 -35.5t44.5 -19.5t21.5 -7q13 -3 20.5 -13.5t7.5 -23.5q0 -17 -12 -26t-26 -9q-20 0 -50 9.5t-63.5 29t-67 49t-60.5 69.5t-43.5 91t-16.5 113q0 113 57.5 203.5t162.5 153.5t251.5 97t325.5 34zM686 186q-104 55 -193 83t-163 28q-42 0 -77.5 -9.5
t-61.5 -25.5t-41 -37t-15 -44q0 -22 13.5 -44t41 -39t68.5 -28t96 -11q94 0 179.5 33.5t152.5 93.5z" />
    <glyph glyph-name="E" unicode="E" horiz-adv-x="1698" 
d="M1636 425q-1 -4 -14 -34t-43.5 -74t-80.5 -97t-126 -103.5t-180 -92t-241 -63.5q-92 -15 -193 -15q-84 0 -168.5 11.5t-162 36t-144.5 62.5t-116.5 90t-78 119.5t-28.5 150.5q0 147 81.5 253t241.5 165q-57 53 -85 117t-28 133q0 86 39.5 159t109.5 126t166.5 82.5
t211.5 29.5q116 0 202.5 -22t148 -55t101 -72t62.5 -73t32 -57.5t10 -26.5q1 -4 1 -11q0 -14 -10.5 -25.5t-27.5 -11.5q-12 0 -21.5 7.5t-13.5 20.5q0 2 -8 21.5t-28 47.5t-54.5 59.5t-88.5 59t-129 45.5t-176 18q-116 0 -201.5 -29t-141 -75.5t-82.5 -103.5t-27 -112
q0 -65 32 -124t92 -101q54 14 106 22t98 12.5t83.5 6t61.5 1.5q44 0 81 -6.5t63.5 -19t41.5 -32t15 -44.5t-15 -45t-41.5 -34t-63.5 -21.5t-81 -7.5q-48 0 -97 6t-95.5 17t-89.5 27.5t-78 37.5q-159 -48 -241 -138.5t-82 -223.5q0 -72 25.5 -129.5t70.5 -101.5t105.5 -75.5
t129.5 -51.5t144 -29.5t149 -9.5q48 0 93 3.5t87 10.5q126 20 221.5 58.5t165 84t115.5 93t73.5 87t39 64.5t11.5 26q4 12 13.5 18.5t21.5 6.5q16 0 27 -11t11 -26q0 -4 -2 -12zM943 800q0 8 -13 14t-33.5 9.5t-46.5 5t-53 1.5q-59 0 -112 -3.5t-121 -16.5
q52 -19 119.5 -30.5t136.5 -11.5q63 0 93 10t30 22z" />
    <glyph glyph-name="F" unicode="F" horiz-adv-x="2216" 
d="M2291 1480q34 0 73.5 -7.5t73.5 -25t56 -47t22 -73.5q0 -54 -31.5 -98t-88.5 -75.5t-136.5 -49t-175.5 -17.5q-108 0 -234 15q-23 -72 -34.5 -161t-12.5 -198q38 1 77.5 1.5t81.5 0.5q56 0 113 -1.5t115 -3.5q17 -1 26.5 -12.5t9.5 -26.5q0 -16 -11 -26t-26 -10
q-57 0 -113.5 2t-111.5 2q-42 0 -82 -0.5t-79 -1.5q0 -14 0.5 -27t0.5 -27q0 -156 -47 -277.5t-137.5 -204.5t-222.5 -126t-303 -43q-126 0 -223.5 22.5t-171 59.5t-126 83.5t-87.5 94t-56 92t-31 76.5q-1 3 -1.5 5.5t-0.5 5.5q0 15 11 26.5t28 11.5q12 0 21.5 -7t13.5 -19
q9 -28 27 -67t49.5 -80.5t78 -82.5t113 -73t154 -52t201.5 -20q314 0 474.5 146t160.5 431q0 12 -0.5 24.5t-0.5 24.5q-101 -4 -186 -9.5t-148.5 -11t-102.5 -9t-48 -3.5q-17 0 -30 9.5t-13 28.5q0 14 10 24.5t24 12.5q1 0 38.5 4t103.5 9.5t156 11t196 9.5q2 221 46 372
q-109 16 -222 38.5t-225 47.5t-220.5 49.5t-208.5 44.5t-188 32t-160 12q-101 0 -188 -20.5t-150.5 -59.5t-100 -95.5t-36.5 -128.5q0 -47 17.5 -84.5t39.5 -64t41 -41t21 -15.5q9 -5 13 -14t4 -18q0 -17 -11.5 -27.5t-25.5 -10.5q-11 0 -21 7q-24 16 -51 42t-49.5 59.5
t-37.5 75.5t-15 91q0 90 42.5 160t116.5 119t174.5 74.5t217.5 25.5q69 0 157 -12.5t189.5 -32.5t213 -45t227.5 -50.5t233 -48.5t229 -39q28 78 80.5 134.5t119.5 92.5t142.5 53t148.5 17zM2440 1329q0 24 -15.5 38.5t-38.5 23t-48.5 11.5t-46.5 3q-48 0 -106.5 -10
t-116 -36t-108 -71t-82.5 -115q111 -12 205 -12q77 0 142.5 12.5t113 34.5t74.5 53t27 68z" />
    <glyph glyph-name="G" unicode="G" horiz-adv-x="1775" 
d="M1735 961q0 -15 -10.5 -27t-26.5 -12q-15 0 -26 10t-13 27q-1 4 -4.5 38t-20 83.5t-50.5 106t-93.5 104.5t-150.5 80t-221 32q-115 0 -231.5 -34.5t-223.5 -97t-200 -149t-161.5 -190.5t-108 -222t-39.5 -243q0 -113 31 -193.5t86 -131.5t129.5 -74.5t160.5 -23.5
q149 0 278.5 51.5t240 139t201.5 204t163 245.5q8 122 28.5 186.5t61.5 64.5q23 0 38.5 -19t15.5 -49q0 -33 -17 -84t-52 -118q-3 -47 -3 -101q0 -79 6.5 -173t20.5 -200q42 21 65.5 30.5t34.5 13t14 3t5 -0.5q15 0 26.5 -10.5t11.5 -27.5q0 -12 -7 -21.5t-19 -13.5
q-2 -1 -34.5 -13.5t-86.5 -39.5q5 -54 8 -109t3 -111q0 -132 -19 -252t-62.5 -211t-115.5 -144.5t-177 -53.5q-52 0 -96 18t-76 50t-50 76.5t-18 97.5q0 75 25.5 148t68 141t97.5 128.5t113 111.5t114.5 90t103.5 63q-13 100 -21 196.5t-10 187.5q-87 -139 -191.5 -245
t-218.5 -178t-234.5 -108.5t-239.5 -36.5q-108 0 -196 32.5t-151 95.5t-97 156t-34 214q0 128 40 252.5t111 237t168.5 207.5t213 164.5t244 109t262.5 39.5q129 0 224 -29.5t161.5 -75t108 -99t65.5 -101.5q20 -41 31.5 -79t17 -67t7 -47t1.5 -19zM1482 71
q-50 -28 -103.5 -66.5t-104 -84.5t-95.5 -99t-79 -110t-53.5 -117.5t-19.5 -121.5q0 -38 12 -68.5t34 -52t52 -33.5t66 -12q141 0 220 149.5t79 436.5q0 43 -2 87.5t-6 91.5z" />
    <glyph glyph-name="H" unicode="H" horiz-adv-x="2425" 
d="M1519 1451q0 -35 -19 -69t-49 -63t-67.5 -52.5t-74.5 -38.5q-10 -42 -16 -93.5t-8 -114.5q-2 -78 -6 -155t-12 -153q81 3 177 6.5t201 6.5t215.5 5t220.5 2q8 160 35 284t70.5 209t102.5 129t131 44q12 0 29.5 -2t34.5 -7.5t29 -16t12 -28.5q0 -5 -1 -9.5t-4 -9.5
q-11 -18 -30 -18q-8 0 -12.5 2.5t-11 5t-16.5 5t-28 2.5q-15 0 -38.5 -5.5t-50.5 -25.5t-55.5 -58.5t-53 -104t-43 -162.5t-24.5 -234q66 -1 130 -2t126 -3q17 0 26.5 -11.5t9.5 -27.5t-11 -26t-26 -10q-20 0 -41.5 0.5t-51 1.5t-69.5 2t-95 1q-1 -16 -1 -32v-33
q0 -110 8.5 -197t21 -154t27.5 -114.5t28 -78t21.5 -45l8.5 -14.5q7 -10 7 -22q0 -15 -11 -26.5t-27 -11.5q-19 0 -30 16q-2 3 -22.5 39t-44.5 113.5t-43.5 199t-19.5 295.5v65q-111 0 -223 -2t-217.5 -5t-202 -6.5t-177.5 -6.5q-19 -139 -58.5 -262t-113 -215.5
t-187.5 -146t-281 -53.5q-88 0 -170.5 18.5t-153.5 52t-128 80.5t-93 103q-6 9 -6 20q0 15 10.5 26.5t27.5 11.5q9 0 18 -4.5t14 -12.5q31 -49 80.5 -89t112.5 -69t136.5 -45t152.5 -16q147 0 247 46.5t163.5 127.5t98 189.5t51.5 233.5q-96 -5 -152 -8t-58 -3
q-15 0 -27.5 9.5t-12.5 26.5q0 16 9.5 27t25.5 13q2 0 62 3t162 8q8 77 12.5 155.5t8.5 158.5q2 51 7.5 98.5t13.5 86.5q-23 -5 -51.5 -8.5t-56.5 -3.5q-88 0 -173 14t-170.5 30.5t-172 30.5t-176.5 14q-74 0 -138.5 -15.5t-112.5 -47.5t-75.5 -80.5t-27.5 -114.5
q0 -42 15 -74t34 -54t36.5 -34.5t22.5 -15.5q18 -13 18 -33q0 -16 -10 -26.5t-25 -10.5q-7 0 -13.5 2.5t-11.5 5.5q-23 14 -48 36t-46 52.5t-34.5 68.5t-13.5 83q0 88 38.5 151.5t100.5 104t138.5 59.5t153.5 19q87 0 172.5 -14.5t171.5 -31.5t172.5 -31.5t176.5 -14.5
q36 0 65 2.5t55 10.5q18 63 41.5 108.5t50 75t53.5 43.5t52 14q33 0 55.5 -20t22.5 -52zM1436 1452q-8 0 -21.5 -8.5t-29.5 -26t-32 -44.5t-28 -64q33 15 58 39t40 47.5t19 40t-6 16.5z" />
    <glyph glyph-name="I" unicode="I" horiz-adv-x="1300" 
d="M1270 1550q24 0 42 -21t18 -52q0 -42 -33.5 -93.5t-96.5 -107.5q-11 -56 -19 -127.5t-8 -162.5q0 -140 -9 -273t-34 -250t-70.5 -215t-119 -168.5t-178.5 -110t-249 -39.5q-120 0 -214 28t-159.5 77.5t-100 116t-34.5 144.5t33 144.5t89 116t130.5 77.5t158.5 28
q13 0 26.5 -0.5t24.5 -4t18.5 -12t7.5 -23.5q0 -16 -11.5 -26.5t-26.5 -10.5q-10 0 -19.5 0.5t-19.5 0.5q-68 0 -129 -22t-107 -61t-73 -92t-27 -115q0 -55 20 -98t54 -75.5t78.5 -55.5t93.5 -37t99.5 -20.5t96.5 -6.5q127 0 219 36t155.5 101t102.5 155.5t61 200t29.5 234
t8.5 257.5q1 64 5 125.5t11 111.5q-40 -21 -88 -41t-96.5 -41.5t-94.5 -46t-81.5 -54t-57 -66t-21.5 -81.5q0 -41 14 -71.5t35 -51.5t46 -34.5t46.5 -21t37 -11t17.5 -3.5q17 -5 23 -13.5t6 -20.5q0 -17 -10 -27.5t-25 -10.5q-2 0 -8.5 0.5t-8.5 1.5q-33 7 -76 24.5
t-81.5 49t-65 79.5t-26.5 117q0 61 30 108t78.5 84t108 66t118.5 54.5t111 49.5t85 52q28 121 65 178t75 57z" />
    <glyph glyph-name="J" unicode="J" horiz-adv-x="1157" 
d="M1016 1323q-29 -84 -49 -192.5t-20 -238.5q0 -92 6 -186t10 -202q24 13 42 13q14 0 25 -9.5t11 -24.5q0 -22 -20 -32.5t-57 -26.5v-87q0 -228 -26.5 -418.5t-85.5 -328t-155.5 -214.5t-235.5 -77q-59 0 -116 22.5t-101.5 68.5t-72 114.5t-27.5 160.5q0 101 37.5 192.5
t99 172t140.5 149t161.5 124.5t162.5 98t143 69q-2 103 -9 206.5t-7 212.5q0 102 12.5 196.5t34.5 176.5q-39 -22 -85.5 -41t-97.5 -36t-104.5 -33t-105.5 -31q-79 -23 -143.5 -50.5t-110.5 -63.5t-71.5 -82t-25.5 -106q0 -70 27 -119t70.5 -79.5t98 -44t108.5 -13.5
q16 0 26.5 -11t10.5 -27t-11.5 -26.5t-25.5 -10.5q-68 0 -135.5 19.5t-121.5 60t-88 102.5t-34 146q0 73 29.5 130.5t82.5 102.5t128 79t166 60q66 19 131 40t123.5 43.5t107.5 47t84 51.5q40 112 86 172.5t88 60.5q9 0 19.5 -3.5t20 -11t15.5 -20.5t6 -32q0 -44 -46 -100
t-125 -113zM889 391q-58 -25 -130 -64t-146.5 -91t-145 -115t-126 -135.5t-89 -153t-33.5 -166.5q0 -73 21 -128t56.5 -92t81 -55.5t93.5 -18.5q83 0 146 38.5t109.5 107t77.5 163t50 208t27 241t8 261.5z" />
    <glyph glyph-name="K" unicode="K" horiz-adv-x="2363" 
d="M1047 1274q-15 -21 -28.5 -48.5t-24.5 -63.5t-18 -82.5t-9 -104.5q-2 -54 -3.5 -108t-4.5 -108q5 1 16 1q51 0 115 -15.5t132 -46.5q92 24 162.5 63t125 87.5t97 104t78.5 111.5t68 110.5t67 100.5q36 48 82.5 91t96 74.5t99.5 50t94 18.5q15 0 27.5 -9.5t12.5 -26.5
q0 -16 -10.5 -27t-26.5 -12q-30 -1 -70.5 -16t-83.5 -42t-85 -64t-76 -83q-39 -53 -72.5 -108t-68 -108.5t-73.5 -105t-89 -98t-114.5 -87.5t-149.5 -74q71 -45 137 -112.5t143 -150.5q64 -69 120.5 -130t110 -106.5t104 -71.5t102.5 -26q64 0 123 33.5t100 97.5
q11 17 32 17q17 0 27.5 -12t10.5 -26q0 -11 -6 -20q-51 -81 -127 -123.5t-159 -42.5q-64 0 -123 27.5t-118 76t-121 114t-132 141.5q-46 49 -86.5 92t-79 78.5t-77.5 64t-81 49.5q-54 -13 -104 -18t-92 -5q-20 0 -37 1t-31 4q-8 -88 -23.5 -169.5t-41.5 -153t-65.5 -130.5
t-96 -101t-133 -65.5t-176.5 -23.5q-57 0 -112.5 9.5t-107 28t-98 45t-83.5 60.5q-12 10 -12 28q0 15 11 26.5t26 11.5q16 0 26 -10q65 -59 157 -91.5t193 -32.5q127 0 211.5 43t136.5 121.5t78 188t37 243.5q-12 11 -17.5 23.5t-5.5 26.5q0 34 31 56q3 59 4.5 120.5
t3.5 126.5q2 103 22 173t44 118q-50 -2 -105 3.5t-112 12.5t-114 13.5t-111 6.5q-69 0 -130 -20t-106.5 -56.5t-71.5 -87.5t-26 -112q0 -53 22.5 -87t50.5 -54.5t51.5 -28.5t26.5 -9q13 -3 21 -13.5t8 -23.5q0 -17 -12 -27t-26 -10q-6 0 -9 1q-28 6 -64 24t-68 48.5t-54 75
t-22 104.5q0 78 32 142.5t87.5 111t130 72t158.5 25.5q65 0 132 -7t131 -14.5t122.5 -13t107.5 -1.5q19 24 46 47t57.5 40.5t62 28.5t61.5 11q32 0 55 -19.5t23 -49.5q0 -24 -21.5 -46t-58 -40t-85 -30t-101.5 -15zM1109 670q-9 3 -24 6.5t-33 6.5t-38 5t-39 2
q-5 0 -9.5 -0.5t-9.5 -1.5q-1 -5 -1 -10.5t-1 -10.5q15 -4 54 -4h19t28.5 1t30 2t23.5 4zM1238 1413q-10 0 -26.5 -5t-35 -14t-37.5 -20t-34 -23q26 2 53.5 12t48.5 21t30.5 20t0.5 9z" />
    <glyph glyph-name="L" unicode="L" horiz-adv-x="1846" 
d="M1800 163q-1 -2 -12 -17t-31.5 -36.5t-51 -46t-72 -45t-93.5 -34.5t-115 -14q-98 0 -184 24.5t-165.5 62.5t-156.5 84t-157 90q-49 -82 -112.5 -133.5t-132 -80.5t-136 -39.5t-124.5 -10.5q-55 0 -111.5 11.5t-102 38t-74.5 69.5t-29 107q0 60 27.5 108.5t76 82.5
t114.5 52.5t142 18.5q57 0 113.5 -10t110.5 -27t105 -38.5t96 -43.5q6 18 10.5 36t8 39.5t5 48t1.5 61.5q0 33 -1.5 63t-3 65.5t-3 80t-1.5 106.5q0 143 28 260.5t83 201.5t137 130.5t191 46.5q66 0 125.5 -21t105 -60t72 -93t26.5 -120q0 -36 -10 -75t-27.5 -71.5
t-40 -53.5t-47.5 -21q-14 0 -25 8t-11 25q0 12 5.5 20.5t13.5 15.5q29 26 47.5 64t18.5 88t-20.5 90.5t-55 69t-80 44t-95.5 15.5q-94 0 -163 -41t-114 -115.5t-66.5 -180t-21.5 -234.5q0 -62 1.5 -109t3 -86t3 -73.5t1.5 -70.5q0 -21 -2 -45.5t-6 -50t-10.5 -50
t-14.5 -44.5q76 -40 150 -85t150.5 -82.5t158 -62t172.5 -24.5q80 0 138.5 24t97 53.5t57.5 54t19 25.5q11 18 32 18q17 0 27.5 -12t10.5 -26q0 -11 -6 -20zM696 268q-43 21 -90.5 41.5t-97.5 36.5t-102.5 25.5t-104.5 9.5q-59 0 -111 -12.5t-91 -36.5t-61.5 -58t-22.5 -77
q0 -40 20 -69.5t53.5 -49t77.5 -29t92 -9.5q58 0 120 9.5t120 35t109 70t89 113.5z" />
    <glyph glyph-name="M" unicode="M" horiz-adv-x="2722" 
d="M2382 1288q-43 -63 -96 -151t-113 -197q-51 -91 -100.5 -193.5t-94.5 -203t-83 -193t-66 -163t-44 -113t-16 -43.5q-10 -25 -36 -25q-13 0 -23 8.5t-13 21.5q0 1 -9.5 42.5t-25.5 111t-36.5 160t-43 189t-45.5 199.5t-43 192q-67 -189 -134.5 -334.5t-138.5 -253
t-146.5 -180.5t-158 -117.5t-173 -63.5t-191.5 -19q-52 0 -111 11.5t-117 35.5t-111 60t-94 85.5t-65 112t-24 139.5q0 81 34 148.5t92 116t134.5 75.5t161.5 27q62 0 111.5 -10.5t87.5 -26.5t65 -35t45 -35t26 -27.5t9 -11.5q6 -11 6 -21q0 -14 -10.5 -26t-27.5 -12
q-20 0 -32 17q-1 1 -16 18.5t-49 38.5t-87.5 38t-130.5 17q-70 0 -132.5 -21.5t-109 -60.5t-74 -92.5t-27.5 -117.5q0 -63 21 -115t56 -93t81 -71t96 -49.5t100.5 -29t95.5 -9.5q76 0 148.5 11.5t143 43.5t138.5 88t135 146t132.5 217t131.5 300q20 52 39 112t39 121
q-17 88 -24.5 150t-7.5 103q0 44 7 70t18 39.5t24 17t25 3.5q10 0 22.5 -4t23 -17.5t17.5 -39.5t7 -70q0 -48 -9 -111t-27 -139q13 -61 30 -136t35 -155.5t37 -164.5t37 -164t34.5 -153t30.5 -132q27 68 66 164.5t87 205t101.5 221t109.5 212.5q79 142 145 243.5t114 167.5
t75.5 97.5t29.5 34.5q11 11 27 11q17 0 27.5 -11.5t10.5 -26.5q0 -7 -3 -14q0 -1 -11.5 -29.5t-29 -78t-38.5 -116t-41 -143t-35.5 -160t-22.5 -166.5q-3 -38 -5 -79.5t-2 -83.5q0 -66 6 -133t20 -129t38 -116.5t59 -95.5t83.5 -66t112.5 -27q16 -1 25.5 -13.5t9.5 -26.5
t-11 -25t-26 -11q-16 0 -32 3q-72 10 -127 41.5t-95 78t-66.5 106t-42.5 127.5t-22.5 141.5t-6.5 148.5q0 89 9 178t24 173.5t35 163.5t41 147z" />
    <glyph glyph-name="N" unicode="N" horiz-adv-x="2310" 
d="M2660 1504q-2 -15 -13 -24t-25 -9q-2 0 -7 0.5t-23 0.5q-19 0 -48.5 -4t-65 -16.5t-74 -36.5t-75.5 -64.5t-70 -100t-56 -143.5q-12 -42 -27.5 -120.5t-33 -176.5t-35 -209t-33 -218t-28.5 -203.5t-20 -165.5q-2 -13 -11.5 -23.5t-23.5 -10.5t-24.5 7t-14.5 21
q-13 48 -41 133t-64.5 191.5t-79.5 226.5t-85.5 237.5t-82 225t-69.5 189.5q-5 -56 -15.5 -124.5t-28 -147t-43.5 -166t-62 -181.5q-56 -144 -131.5 -246t-158.5 -170t-168.5 -107.5t-160.5 -59.5t-135 -25.5t-92 -5.5q-110 0 -202.5 29t-160 82.5t-105 128t-37.5 164.5
q0 81 36.5 151.5t98 122.5t141 82t165.5 30q71 0 127.5 -14t100 -35.5t75 -46.5t52 -47.5t31 -38.5t12.5 -19q4 -8 4 -18q0 -14 -10.5 -26t-27.5 -12q-22 0 -33 20q-1 3 -19.5 28.5t-57 55.5t-99.5 54.5t-148 24.5q-71 0 -138.5 -24t-119.5 -66t-83.5 -99.5t-31.5 -124.5
q0 -73 34 -133.5t92.5 -103.5t136 -66.5t165.5 -23.5q34 0 90 5t125.5 23t146.5 54.5t152 99.5t143.5 157t120.5 228q54 138 84.5 262.5t45.5 224.5t18.5 170.5t3.5 100.5v20q0 16 10.5 27.5t27.5 11.5q25 0 35 -25q3 -7 17.5 -47t38 -103.5t54 -146.5t64.5 -176.5
t70 -193.5t70.5 -197t65.5 -187t56 -164q11 80 24 169.5t27.5 181t29 179.5t29 165t26.5 138t22 98q22 88 63 164.5t99.5 133.5t134 89.5t167.5 32.5q35 0 50.5 -8t15.5 -31v-5v0z" />
    <glyph glyph-name="O" unicode="O" horiz-adv-x="1584" 
d="M1500 835q18 10 37.5 25t37.5 31t32.5 30.5t22.5 25.5q6 7 16 7q17 0 27.5 -12.5t10.5 -26.5q0 -10 -4 -17q-12 -16 -30.5 -35.5t-43 -39.5t-53.5 -40.5t-60 -38.5q-17 -197 -82.5 -343.5t-167 -244.5t-232 -146.5t-277.5 -48.5q-80 0 -161.5 17t-156.5 52.5t-140 90
t-113 130t-75.5 172t-27.5 216.5q0 119 28.5 225.5t84 198t136.5 165t187 126.5q8 4 18 4q14 0 26 -10t12 -27q0 -11 -6.5 -20.5t-17.5 -14.5q-6 -3 -37.5 -18.5t-75 -47.5t-93 -81.5t-91 -120.5t-69 -165t-27.5 -214q0 -110 23.5 -194t62.5 -147t89.5 -107t104 -73
t106.5 -46t97.5 -25t75.5 -10t41 -2q124 0 237 39t203 120.5t151.5 207.5t83.5 300q-65 -29 -135.5 -45.5t-147.5 -16.5q-106 0 -206 27.5t-177 83t-124 138.5t-47 194q0 90 31.5 161.5t85.5 122t125 77t149 26.5q64 0 128.5 -15t124 -46.5t111 -79.5t90 -115t60.5 -152.5
t22 -191.5v-35zM1422 788q3 39 3 78q0 142 -41.5 243t-108 165t-149.5 93.5t-166 29.5q-64 0 -120.5 -21t-99 -61t-67 -98.5t-24.5 -133.5q0 -72 30.5 -138.5t90.5 -118t149.5 -82t208.5 -30.5q81 0 154.5 20t139.5 54z" />
    <glyph glyph-name="P" unicode="P" horiz-adv-x="1913" 
d="M1883 987q0 -121 -46 -216.5t-130 -162t-201 -102t-258 -35.5q-17 0 -29.5 9.5t-12.5 28.5q0 15 11 26t27 11q126 0 230 29t178 85.5t115 138.5t41 188q0 108 -47.5 192t-133 142t-204 88t-260.5 30q-134 0 -259.5 -22t-235.5 -62t-200.5 -96t-155 -123t-100.5 -143.5
t-36 -158.5q0 -72 25 -126t66.5 -90.5t95.5 -54.5t113 -18q70 0 124.5 15t92 33t57.5 33.5t22 17.5q11 11 26 11t26.5 -11.5t11.5 -26.5q0 -17 -12 -27q-2 -2 -25.5 -21t-68 -41.5t-108.5 -40.5t-146 -18q-75 0 -143.5 25t-120 72.5t-82 115t-30.5 152.5q0 93 38.5 179.5
t108 162t166.5 138t215 107t253 69t280 24.5q159 0 292 -36t228.5 -104t148.5 -165.5t53 -221.5zM1289 1225q15 0 26.5 -10.5t11.5 -27.5q0 -10 -5.5 -18t-13.5 -15q-56 -44 -89.5 -95t-51 -109.5t-23 -124.5t-5.5 -138v-126q0 -124 -22 -235.5t-74.5 -195.5t-140.5 -133.5
t-221 -49.5q-60 0 -117.5 14.5t-108.5 42t-94 67.5t-74 90q-2 4 -4 9.5t-2 10.5q0 14 10.5 25.5t27.5 11.5q10 0 18.5 -5.5t14.5 -13.5q64 -89 145 -133.5t184 -44.5q118 0 192.5 43.5t117 119t58 176.5t15.5 215v127q0 67 6 138.5t27.5 140t62 130t109.5 108.5q4 2 10 4
t10 2z" />
    <glyph glyph-name="Q" unicode="Q" horiz-adv-x="1749" 
d="M1076 114q-149 -66 -289.5 -96.5t-266.5 -30.5q-94 0 -161.5 11.5t-114.5 29.5t-75 41t-43.5 47t-20.5 46t-5 39q0 42 20 73t50.5 53.5t67 37t69.5 23.5q-81 83 -122 183t-41 214q0 99 28.5 190t79 169.5t121.5 142.5t155.5 109.5t180.5 70t197 24.5t193.5 -24t172 -67.5
t144 -104t110.5 -135t71 -159.5t25 -177q0 -88 -20.5 -165t-56 -143t-82 -121.5t-98 -100.5t-106 -80t-104.5 -60q54 -34 105.5 -68.5t101 -66.5t98 -60t95.5 -49q60 -27 119 -37t113 -10t101.5 7.5t82 16.5t55 17l20.5 8q7 3 15 3q15 0 26.5 -10.5t11.5 -27.5
q0 -11 -5.5 -20t-16.5 -14q-3 -1 -26 -10t-61.5 -19t-90 -18.5t-111.5 -8.5q-61 0 -128 12t-136 43q-54 24 -108.5 56t-110.5 68t-113 74t-116 74zM1084 197q91 43 174.5 102.5t147.5 137.5t102 175t38 214q0 122 -49 229.5t-135 188t-203 127t-253 46.5q-92 0 -178 -22.5
t-162.5 -63t-140 -97.5t-109.5 -127t-71.5 -151t-25.5 -168q0 -68 15.5 -125.5t41 -105.5t58.5 -86t68 -68q13 1 26.5 1.5t27.5 0.5q45 0 98 -6t114 -20q113 -26 217.5 -76t198.5 -106zM998 161q-60 39 -118.5 68t-118.5 49.5t-124 33t-135 18.5q29 -20 53.5 -29.5
t31.5 -12.5q25 -11 25 -34q0 -17 -11 -26.5t-26 -9.5q-11 0 -24 5q-2 0 -16 6t-38 18.5t-55 32t-66 46.5q-26 0 -60.5 -7.5t-65.5 -22.5t-53 -38.5t-22 -56.5q0 -24 15.5 -49t55 -45.5t106.5 -33.5t170 -13q39 0 90.5 4t112 15t129.5 30.5t144 51.5z" />
    <glyph glyph-name="R" unicode="R" horiz-adv-x="2073" 
d="M1289 1225q15 0 26.5 -10.5t11.5 -27.5q0 -22 -19 -33q-3 -2 -26.5 -19t-51.5 -55t-54 -100.5t-33 -154.5q-2 -16 -2.5 -32t-1.5 -32q18 2 37.5 3.5t41.5 1.5q72 0 139 -16t123 -46q145 58 222 154t77 214q0 88 -44 156.5t-123.5 115.5t-190 72t-242.5 25
q-115 0 -234.5 -17.5t-231 -52.5t-209.5 -87t-171 -119.5t-115 -150.5t-42 -180q0 -72 25 -126.5t66.5 -91t95.5 -55t113 -18.5q70 0 123 14t89 30.5t54.5 31t20.5 16.5q7 5 16 11.5t19 6.5q15 0 26 -10.5t11 -26.5t-11 -26q-2 -2 -25.5 -21.5t-67.5 -41.5t-107.5 -40
t-145.5 -18q-76 0 -144.5 25t-120.5 72t-82.5 114.5t-30.5 153.5q0 95 39 182.5t110 163.5t170 137.5t218.5 105.5t256.5 68t283 24q149 0 273.5 -29.5t214.5 -85t140 -136t50 -182.5q0 -135 -77.5 -245t-227.5 -183q55 -47 86.5 -109.5t47 -126.5t20 -122t6.5 -97
q2 -57 10.5 -92.5t24 -55.5t38 -27.5t54.5 -7.5q45 0 83 21.5t68.5 53.5t54 69.5t39.5 70t24.5 54t8.5 22.5q10 25 35 25q17 0 27.5 -11.5t10.5 -26.5q0 -5 -2 -13q-1 -4 -11.5 -30.5t-30.5 -64t-50 -80.5t-69.5 -79.5t-89 -60.5t-109.5 -24q-53 0 -88.5 17t-58 49.5t-33 79
t-12.5 106.5q-1 25 -3 59.5t-7.5 73t-15.5 79.5t-28 80t-45 74t-66 61q-77 -26 -159.5 -40.5t-170.5 -15.5v-30q0 -123 -24.5 -230.5t-79.5 -187t-142 -125t-212 -45.5q-62 0 -122.5 16.5t-113 45.5t-94 68.5t-65.5 85.5q-5 8 -5 18q0 14 10.5 25.5t27.5 11.5q22 0 33 -19
q22 -39 57 -72t78.5 -56.5t93 -36.5t100.5 -13q103 0 176 36.5t119 104t67 162t21 211.5v39q-33 11 -53 31t-20 49t19 51t54 36q0 23 1 45.5t3 44.5q6 72 22.5 129t39 100t46.5 73t45 49.5t35 28.5t16 10q7 4 17 4zM1383 667q-17 5 -33 10t-34.5 8.5t-41 6t-51.5 2.5
q-52 0 -85 -6v-1v-48q61 0 125.5 7t119.5 21z" />
    <glyph glyph-name="S" unicode="S" horiz-adv-x="1681" 
d="M1814 1050q-3 -14 -13 -22t-22 -8q-18 0 -29 11.5t-11 26.5t3 29.5t3 28.5q0 73 -45 131t-127.5 97.5t-200.5 60.5t-263 21q-111 0 -223.5 -14.5t-216 -42t-193.5 -69t-156.5 -96t-104.5 -121t-38 -145.5q0 -61 26.5 -107.5t72.5 -81t108.5 -59t135.5 -41t152 -27
t159 -17.5l154 -13q115 -10 206 -21t160 -28q115 -29 170 -83t55 -144q0 -87 -48 -153t-131 -111t-194 -68t-238 -23q-138 0 -242.5 18.5t-175 41t-107.5 41.5t-40 21q-18 10 -18 32q0 17 12 27.5t26 10.5q11 0 20 -6q1 0 34.5 -17.5t100 -38.5t164.5 -38t228 -17
q129 0 228 21t166.5 58.5t102 88t34.5 109.5q0 35 -12.5 60.5t-34.5 44t-52.5 31.5t-66.5 22q-38 10 -81.5 17t-89.5 12t-92.5 9t-91.5 8l-154 13q-182 15 -317.5 46.5t-225.5 81t-135 118.5t-45 161q0 94 42.5 172.5t116 141.5t172 109.5t210.5 77.5t232 46.5t236 15.5
q145 0 252.5 -17.5t184 -45t125.5 -62.5t79 -69q71 -83 71 -189q0 -35 -7 -67z" />
    <glyph glyph-name="T" unicode="T" horiz-adv-x="1797" 
d="M1749 1392q14 0 26.5 -10.5t12.5 -27.5q0 -21 -19 -32q-1 -1 -27.5 -19t-62.5 -56q75 -9 153 -9q76 0 138.5 10.5t112 29t86 43.5t60.5 55q6 7 14 11.5t17 4.5q16 0 26.5 -12t10.5 -26t-7 -22q-24 -32 -64 -62.5t-97 -54.5t-131 -38.5t-165 -14.5q-52 0 -104 4.5
t-104 12.5q-23 -33 -42.5 -74t-31.5 -90q-21 -84 -23.5 -178t-4 -191.5t-9.5 -194t-38 -186.5q-23 -68 -61.5 -126t-94 -100.5t-127 -67t-160.5 -24.5q-146 0 -264 58t-205 183q-3 5 -8 14t-5 18q0 14 10 27t28 13q11 0 20 -5.5t14 -13.5q73 -112 171 -165.5t238 -53.5
q74 0 133 18.5t104.5 53t78.5 84.5t55 114q24 70 30.5 161.5t8.5 191t7.5 199.5t27.5 189q11 47 29 87t38 74q-134 27 -266.5 68.5t-259 80t-244 66.5t-221.5 28q-95 0 -175.5 -27t-139 -76t-91 -118t-32.5 -153q0 -61 21.5 -112t59.5 -88.5t90 -58.5t114 -21q65 0 116 19.5
t90 48.5t66.5 63t45 63.5t26 49l8.5 19.5q4 11 14 18t22 7q17 0 27.5 -11.5t10.5 -26.5q0 -3 -0.5 -5.5t-1.5 -5.5q-1 -2 -11 -26.5t-31 -59t-54 -74.5t-80 -74.5t-108.5 -57t-140.5 -22.5q-76 0 -141.5 27t-114 74t-76 112t-27.5 142q0 102 39 184.5t108 141.5t163 91
t204 32q80 0 161 -14t164.5 -37t169.5 -51t174.5 -56.5t180 -53.5t186.5 -41q25 31 49.5 55t44 39.5t32.5 24t15 9.5q10 5 18 5z" />
    <glyph glyph-name="U" unicode="U" horiz-adv-x="2034" 
d="M1610 648q-58 -180 -127 -313t-144 -221t-155 -131t-159 -43q-86 0 -144 27.5t-93.5 75t-51 112t-15.5 139.5q0 88 19 188t42.5 202t42.5 203t19 192q0 140 -72 216.5t-209 76.5q-86 0 -163.5 -27.5t-136 -77t-93 -117.5t-34.5 -149q0 -56 13 -96.5t32.5 -68.5t42 -45
t43 -26t34.5 -12t16 -3q15 -2 24 -13t9 -25q0 -16 -11.5 -26.5t-26.5 -10.5q-2 0 -10 1t-10 2q-39 10 -80.5 31.5t-75 60t-55 95t-21.5 136.5q0 97 41 178.5t110 141t160 92.5t191 33q84 0 150 -25t112.5 -72.5t71 -115.5t24.5 -154q0 -93 -19.5 -194t-42.5 -202.5
t-42.5 -200t-19.5 -187.5q0 -63 11.5 -115t38.5 -89t70.5 -57.5t107.5 -20.5q43 0 91.5 18t101 64t109 125t115.5 202q43 90 79.5 194t66 207.5t52 200t37.5 171t23 119.5t8 47q3 14 13 22.5t24 8.5q17 0 27.5 -11t10.5 -25q0 -4 -5.5 -43t-14.5 -101t-20.5 -143.5
t-23 -170.5t-23 -181t-20.5 -176.5t-14.5 -156t-5.5 -119.5q0 -129 44.5 -191.5t116.5 -62.5q50 0 91.5 33t74 80t54.5 97t34 85q4 12 14 19t22 7q17 0 27.5 -12t10.5 -26q0 -4 -2 -12q-4 -11 -15.5 -40.5t-30.5 -68t-46 -80t-62 -76t-78.5 -57t-95.5 -22.5q-57 0 -101 22.5
t-74 64.5t-45.5 102.5t-15.5 137.5q0 64 9 165t23 218z" />
    <glyph glyph-name="V" unicode="V" horiz-adv-x="2119" 
d="M1332 53q174 136 313.5 289t237 309.5t149.5 312t52 296.5q0 82 -17.5 153t-50.5 122.5t-79.5 81t-104.5 29.5h-19q-17 0 -28.5 10t-11.5 27q0 24 17.5 31.5t39.5 7.5q73 0 134 -34t104 -95t67 -144t24 -180q0 -158 -54.5 -324.5t-161 -335t-264 -335.5t-362.5 -326
q-5 -4 -13 -9t-19 -5q-19 0 -28 12.5t-9 29.5q0 7 1.5 29t3.5 54t5 70.5t5 78t3.5 76.5t1.5 66q1 219 -33 404.5t-108 321.5t-190.5 212.5t-281.5 76.5q-123 0 -216.5 -33.5t-156.5 -88.5t-95 -124.5t-32 -141.5q0 -64 21.5 -114.5t59 -86t88.5 -54t110 -18.5q50 0 91 11
t70 24.5t45.5 25t18.5 13.5q5 5 11.5 6.5t12.5 1.5q15 0 26 -9.5t11 -25.5q0 -19 -13 -29q-2 -2 -22 -16.5t-55.5 -31t-85.5 -30.5t-111 -14q-75 0 -140 25t-112 71t-74 109.5t-27 140.5q0 86 37 169t109.5 148t179 104.5t246.5 39.5q181 0 311.5 -78.5t215 -221.5
t125 -344.5t40.5 -447.5q0 -69 -3 -142.5t-9 -149.5z" />
    <glyph glyph-name="W" unicode="W" horiz-adv-x="2851" 
d="M1146 -46q-11 -20 -33 -20q-18 0 -28 11.5t-10 27.5q0 2 1 41.5t1 106.5q0 85 0.5 181t-2.5 195t-13 197t-31 187.5t-55 166.5t-87 133.5t-126 88.5t-172 32q-97 0 -177 -33.5t-137.5 -90t-89 -132t-31.5 -159.5q0 -73 25.5 -134.5t69.5 -106.5t102.5 -70.5t124.5 -25.5
q49 0 90 13.5t70 29.5t45 29.5t17 13.5q11 11 27 11q15 0 26 -10.5t11 -25.5t-11 -26q-2 -2 -22.5 -19.5t-56.5 -37.5t-85.5 -36t-109.5 -16q-83 0 -155.5 31t-126.5 86t-85.5 130.5t-31.5 163.5q0 100 38.5 189t106.5 155.5t160.5 105t201.5 38.5q141 0 238 -50.5
t160.5 -135t98 -195t50.5 -230.5t19 -241.5t3 -228.5v-43t-0.5 -46t-1 -43.5t-0.5 -33.5l670 1240q9 19 32 19q17 0 27.5 -11.5t10.5 -26.5q0 -5 -6 -36.5t-14.5 -83.5t-18.5 -120.5t-18.5 -147.5t-14.5 -164.5t-6 -170.5q0 -143 15 -253.5t49 -186.5t89.5 -115t136.5 -39
q73 0 139 31.5t123 86.5t106 129t88.5 159.5t70 177.5t51 183t31 177t10.5 158q0 130 -29.5 239.5t-94.5 178.5q-10 10 -10 25q0 16 11.5 27t26.5 11q17 0 27 -11q38 -41 65.5 -92.5t45 -112t26 -127.5t8.5 -139q0 -110 -21 -239.5t-62 -260t-100.5 -252.5t-137 -215.5
t-171.5 -150t-203 -56.5q-103 0 -173 46.5t-112.5 134t-61 212.5t-18.5 282q0 65 4.5 134t11 135t14 127t14.5 110z" />
    <glyph glyph-name="X" unicode="X" horiz-adv-x="2011" 
d="M1974 8q0 -15 -11 -27t-27 -10q-89 7 -158 32t-123.5 65t-97.5 95t-80.5 122.5t-72.5 147t-73 169.5q-168 -164 -349.5 -323t-379.5 -313q-13 -10 -21.5 -17t-14.5 -11t-11 -5.5t-11 -1.5q-15 0 -26.5 11.5t-11.5 26.5q0 10 7 21q2 3 3.5 4.5t5.5 5t11 9l21 16.5
q202 157 388 320t357 331q-2 3 -2.5 6.5t-2.5 6.5q-43 97 -80 187.5t-75.5 169.5t-82.5 144.5t-101 112t-130.5 72.5t-170.5 26q-56 0 -114.5 -15t-113.5 -42.5t-104.5 -66.5t-86.5 -87.5t-58.5 -105.5t-21.5 -119q0 -55 17 -100.5t47 -78.5t70.5 -51t88.5 -18q52 0 94 15.5
t71.5 34t46 34.5t17.5 16q11 11 27 11q15 0 26 -11.5t11 -26.5q0 -16 -11 -27q-3 -2 -23.5 -21.5t-57.5 -41.5t-87.5 -40t-113.5 -18t-117.5 24t-94.5 67t-63 102t-23 129q0 71 23 136t63.5 122t95 103.5t118 80t133 51.5t139.5 18q107 0 188.5 -26t144 -73t111 -114.5
t91 -149.5t82.5 -178t87 -201q198 200 365 398t301 393q11 16 31 16q17 0 27.5 -11.5t10.5 -25.5t-7 -22q-139 -202 -313 -408t-382 -414q35 -82 67.5 -158t66.5 -142.5t73 -121.5t87.5 -95.5t110.5 -65.5t142 -30q16 -1 27 -11.5t11 -26.5z" />
    <glyph glyph-name="Y" unicode="Y" horiz-adv-x="2076" 
d="M2076 54q0 -32 -39 -38q-2 0 -25.5 -4t-60 -13t-83.5 -23.5t-96 -35.5q4 -54 6 -107.5t2 -105.5q0 -105 -16 -205t-54 -178.5t-101 -126.5t-156 -48q-54 0 -97 19.5t-73 53t-46 78.5t-16 96q0 67 28 143t86 152.5t147 148t211 128.5q-5 63 -8.5 132.5t-3.5 134.5
q0 33 2 75.5t6 91.5t9.5 103t11.5 110q-59 -170 -128 -300t-144.5 -217.5t-157.5 -132.5t-167 -45q-75 0 -130 24.5t-92 69t-55 107.5t-18 141q0 104 22 222.5t49 240.5q16 73 32 147t16 140q0 73 -21 136t-61.5 109t-99.5 72.5t-135 26.5q-96 0 -180.5 -36.5t-147.5 -101.5
t-100 -154t-37 -194q0 -63 15 -125.5t46.5 -115t80.5 -89.5t117 -49q14 -2 23.5 -13t9.5 -25q0 -15 -11 -26.5t-26 -11.5q-11 0 -40 8t-65.5 27t-76.5 51.5t-72.5 82.5t-54 118.5t-21.5 160.5q0 126 42.5 230.5t115.5 179.5t171.5 116.5t209.5 41.5q93 0 166.5 -32.5
t123.5 -89t76.5 -133.5t26.5 -166q0 -33 -3 -67.5t-11 -70.5q-15 -77 -33.5 -157t-34.5 -158t-26.5 -152t-10.5 -139q0 -58 11.5 -107.5t37.5 -86t68 -57t104 -20.5q113 0 220.5 101t207.5 302q38 76 71 165t60 178t48.5 171t36 145.5t22.5 102.5t8 40q2 14 12.5 22.5
t23.5 8.5q17 0 27.5 -11.5t10.5 -25.5q0 -4 -5 -36.5t-13 -85t-18.5 -121.5t-21.5 -145q-8 -57 -16.5 -130.5t-15.5 -151.5t-11.5 -155t-4.5 -141q0 -54 3 -112.5t8 -116.5q41 17 83.5 30t79.5 22.5t65 14.5t39 6q20 2 31 -9.5t11 -28.5zM1699 -94q-96 -44 -170.5 -105
t-126 -127.5t-78.5 -133.5t-27 -124q0 -36 10.5 -67t30.5 -54.5t49 -36.5t65 -13q54 0 93.5 23t68 62t46 89t28 103.5t14 107t3.5 99.5q0 43 -2 87.5t-4 89.5z" />
    <glyph glyph-name="Z" unicode="Z" horiz-adv-x="1865" 
d="M1863 1286q2 -8 2 -13q0 -20 -15 -30q-97 -75 -206.5 -159.5t-223 -174t-228 -180t-221.5 -177t-203.5 -166.5t-174.5 -146.5t-134 -118t-82 -81.5q46 7 116.5 19t167.5 22.5t219.5 18.5t271.5 8q140 0 298.5 -11.5t339.5 -40.5q14 -2 23 -12t9 -24q0 -17 -11 -28.5
t-27 -11.5q-4 0 -9 1q-178 29 -332.5 40.5t-291.5 11.5q-120 0 -226 -6t-195 -14t-160 -17.5t-121 -16.5q-15 -2 -31 -5t-31 -5t-27.5 -3.5t-19.5 -1.5q-24 0 -43 12.5t-19 38.5q0 14 6.5 29t23.5 32q31 34 80.5 81.5t131.5 118.5q47 41 114 96.5t146.5 120.5t167.5 135.5
t178 142t177 141t165 130.5t142.5 111.5t108.5 84.5q-107 7 -216.5 22.5t-215.5 34.5t-207 39t-191.5 36.5t-168.5 27t-138 10.5q-94 0 -175.5 -23t-142 -66t-95 -103t-34.5 -133q0 -50 17 -95t51.5 -79t85 -53.5t118.5 -19.5q66 0 130 22t119 65q11 8 23 8q15 0 26.5 -10.5
t11.5 -26.5q0 -19 -14 -30q-65 -51 -141.5 -77t-154.5 -26q-87 0 -152 26.5t-108.5 70.5t-65 102.5t-21.5 122.5q0 91 40.5 165t111.5 126t166.5 80.5t205.5 28.5q71 0 158 -12t185.5 -30t206 -39.5t219.5 -40.5t225.5 -33t225.5 -17h22q12 0 22 -7t15 -18z" />
    <glyph glyph-name="a" unicode="a" horiz-adv-x="704" 
d="M811 279q-4 -8 -16.5 -33.5t-32 -58.5t-45.5 -69t-58 -66t-69 -49.5t-78 -19.5q-58 0 -97.5 37t-57.5 93q-34 -57 -81 -90.5t-94 -33.5q-37 0 -67 13.5t-51 38t-32.5 57.5t-11.5 72q0 78 26.5 137.5t67.5 99.5t90.5 60t95.5 20q31 0 57 -8.5t44.5 -18.5t28.5 -18.5
t11 -9.5q11 -13 11 -27q0 -15 -11 -26.5t-26 -11.5q-16 0 -27 11q-2 2 -9 7.5t-19 11.5t-28.5 10.5t-37.5 4.5q-31 0 -66 -14t-64 -43.5t-48.5 -74t-19.5 -105.5q0 -19 4 -38.5t14 -35.5t27 -26t42 -10q18 0 41.5 12t45 37t39 63t24.5 90q2 14 13 23.5t26 9.5q14 0 24.5 -11
t11.5 -25q1 -19 4 -53.5t13.5 -68.5t31.5 -59t58 -25q24 0 47.5 13t46 34.5t43 49t37.5 55.5t30 54t22 45q5 11 14.5 17t20.5 6q17 0 27.5 -12.5t10.5 -26.5q0 -7 -3 -14z" />
    <glyph glyph-name="b" unicode="b" horiz-adv-x="775" 
d="M881 277q-3 -6 -13 -24.5t-26 -43t-38 -52t-48 -50.5t-56 -38t-62 -15q-52 0 -88 18.5t-59 41.5q-16 -35 -39 -64t-51 -50.5t-59.5 -33.5t-64.5 -12q-61 0 -104 36t-71.5 96.5t-44.5 140.5t-24.5 168t-10.5 178t-2 171q0 155 9 268.5t24.5 193t36 129t43.5 77t47 37.5
t47 10q37 0 65.5 -22t48 -61.5t29.5 -95.5t10 -123q0 -107 -23 -221t-59.5 -227.5t-81.5 -223t-89 -207.5q6 -49 18 -93.5t31 -79t45 -55t60 -20.5t64 19.5t52 51t34.5 71.5t12.5 82q0 28 -5.5 56.5t-17 51t-28.5 36.5t-41 14q-18 0 -28 -7.5t-15 -17t-6 -18.5t-1 -12
q0 -14 6 -28t23 -25q17 -12 17 -33q0 -17 -11.5 -27t-25.5 -10q-20 0 -35.5 12t-26.5 30.5t-17 39.5t-6 39q0 29 10 53.5t27.5 42t40 27t47.5 9.5q43 0 74.5 -20t52.5 -53t31 -75t10 -85q0 -25 -3 -49q4 -8 13 -21t24 -25t36 -21t49 -9q24 0 49.5 18.5t49 46t43.5 59
t33 58.5q5 10 14 15.5t20 5.5q17 0 27.5 -12t10.5 -27q0 -6 -4 -16zM108 406q34 84 69 176.5t63 188.5t46 194t18 193q0 36 -3.5 75.5t-12.5 72.5t-24.5 55t-39.5 22q-8 0 -20.5 -10.5t-26.5 -37t-28 -73.5t-25.5 -119.5t-19 -174.5t-7.5 -240q0 -46 1 -93.5t2.5 -90.5
t3.5 -79t4 -59z" />
    <glyph glyph-name="c" unicode="c" horiz-adv-x="586" 
d="M692 277q-6 -11 -20.5 -40t-39 -65.5t-58.5 -75.5t-78 -71.5t-98.5 -53.5t-118.5 -21q-57 0 -101 20.5t-75 58t-47 88.5t-16 113q0 60 17 112.5t46.5 91.5t68.5 61.5t83 22.5q33 0 60 -11.5t45.5 -30.5t29 -42t10.5 -46q0 -22 -5.5 -41t-14 -33.5t-19.5 -23t-22 -8.5
q-17 0 -27.5 11t-10.5 27q0 8 3.5 14t8 12.5t8 16t3.5 24.5q0 21 -19.5 38t-49.5 17q-28 0 -53.5 -17t-44.5 -45.5t-30.5 -67t-11.5 -81.5q0 -41 10 -78t30 -65.5t50.5 -45.5t72.5 -17q54 0 100 19.5t84 49.5t67 65.5t49.5 67t32 55t13.5 29.5q4 10 13.5 15.5t20.5 5.5
q17 0 27.5 -12t10.5 -27q0 -6 -4 -16z" />
    <glyph glyph-name="d" unicode="d" horiz-adv-x="748" 
d="M426 291q49 -231 142 -231q36 0 69 26.5t61.5 65t50.5 81.5t36 75q10 24 35 24q16 0 27 -12t11 -26q0 -8 -3 -14q-7 -17 -20.5 -45.5t-33 -61t-43.5 -66.5t-53 -61t-61.5 -44.5t-68.5 -17.5q-67 0 -115 46.5t-83 153.5q-48 -102 -97 -148t-106 -46q-30 0 -58 9.5
t-49 31.5t-34 56.5t-13 84.5q0 69 24 127t62 99.5t84.5 64.5t92.5 23q15 0 26 -10.5t11 -26.5q0 -14 -9 -25t-24 -13q-30 -4 -64 -19t-62.5 -43.5t-47 -72.5t-18.5 -105q0 -50 20.5 -78t59.5 -28q16 0 34 8.5t38.5 33.5t45 71t54.5 121q-17 88 -31 203t-14 257q0 62 4 129.5
t13 132t24 122.5t36.5 102t50.5 69.5t66 25.5q33 0 56 -18t37.5 -50t21.5 -77t7 -99q0 -116 -20 -232t-49.5 -222t-62.5 -196t-60 -155zM543 1097q0 25 -1.5 54t-7 54.5t-14.5 42.5t-24 17q-25 0 -46.5 -44t-37.5 -115.5t-25.5 -162t-9.5 -182.5q0 -88 7 -176t16 -157
q29 77 55 158.5t45.5 166.5t31 171.5t11.5 172.5z" />
    <glyph glyph-name="e" unicode="e" horiz-adv-x="523" 
d="M158 110q21 -29 54 -46.5t81 -17.5q49 0 89 23.5t73 61.5t59 85t47 94q5 11 14 16.5t20 5.5q17 0 27.5 -12t10.5 -26q0 -5 -1 -8.5t-3 -7.5q-69 -152 -150.5 -229t-184.5 -79q-66 0 -114 25.5t-79 66t-46 91.5t-15 102t12.5 94t36 75t56 50t71.5 18q23 0 45.5 -9.5
t40.5 -27t29 -42.5t11 -57q0 -41 -14 -77t-38.5 -67t-58.5 -57t-73 -45zM128 175q31 13 56.5 33t43.5 44t28 50.5t10 53.5q0 30 -15 45.5t-35 15.5q-27 0 -46 -15t-31 -39t-17.5 -53.5t-5.5 -58.5q0 -18 3.5 -38t8.5 -38z" />
    <glyph glyph-name="f" unicode="f" horiz-adv-x="455" 
d="M116 -49q74 33 134.5 76t108 90.5t81 97t53.5 94.5q9 22 34 22q17 0 27.5 -11.5t10.5 -25.5q0 -8 -3 -15q-22 -49 -56 -101.5t-82.5 -103t-113.5 -97.5t-149 -86q54 -56 94 -124.5t66.5 -142.5t40 -149.5t13.5 -144.5q0 -63 -11.5 -118.5t-34 -96.5t-54.5 -64.5
t-73 -23.5q-60 0 -93 44.5t-48.5 123t-18 185t-2.5 231.5v144.5t0.5 177t1 198t1.5 207.5t2 204.5t3 190.5q3 172 12 307t29 228t54.5 141.5t87.5 48.5q42 0 71 -23.5t47 -63t26 -92.5t8 -111q0 -122 -21 -236t-57 -221t-84.5 -209t-103.5 -201v-88.5v-95t-0.5 -91
t-0.5 -75.5zM119 455q41 77 75.5 162.5t59.5 176.5t39 186t14 191q0 48 -4.5 87t-14 66.5t-24 43t-33.5 15.5q-20 0 -35 -24t-26 -64t-18.5 -92t-12.5 -108.5t-8 -113t-4.5 -106t-2 -87.5t-0.5 -57q-1 -40 -1.5 -71t-1.5 -61t-1.5 -64t-0.5 -80zM116 -172q0 -63 -0.5 -117.5
t-0.5 -99.5q0 -93 1 -184t9.5 -163.5t26 -117t50.5 -44.5q30 0 49 27t29.5 64t14.5 75.5t4 62.5q0 61 -11.5 128t-35 132.5t-57.5 126.5t-79 110z" />
    <glyph glyph-name="g" unicode="g" horiz-adv-x="623" 
d="M400 -98q188 245 261 407q5 11 13.5 16.5t19.5 5.5q17 0 28 -11.5t11 -26.5q0 -7 -3 -14q-44 -100 -125 -223t-205 -278q0 -63 1 -126t1 -138t-3.5 -148.5t-12.5 -140t-24.5 -123t-40 -98t-59 -65t-81.5 -23.5q-67 0 -103 51t-36 145q0 50 9.5 108.5t27.5 120.5
t43.5 125.5t56.5 123.5t67.5 115t77.5 100q1 70 1.5 139t2.5 127q-30 -38 -71.5 -60t-82.5 -22q-35 0 -63.5 13.5t-48.5 38t-31 57.5t-11 72q0 78 26.5 137.5t67.5 99.5t90.5 60t95.5 20q31 0 57 -8t44.5 -18t28.5 -19t11 -10q11 -12 11 -27t-11 -26.5t-26 -11.5
q-14 0 -27 11q-4 3 -10.5 8.5t-17 11.5t-25 10t-34.5 4q-30 0 -66 -13.5t-67 -42.5t-52 -74.5t-21 -109.5q0 -48 21 -77.5t65 -29.5q21 0 44.5 12t45.5 37t38.5 63t23.5 90q2 14 13 23.5t26 9.5q17 0 26.5 -12t9.5 -27q0 -1 -1 -30.5t-2 -78.5t-2.5 -113.5t-2.5 -136.5z
M324 -317q-47 -65 -85 -141.5t-65 -154.5t-41.5 -151.5t-14.5 -131.5q0 -37 6.5 -59t16 -34t21 -16t21.5 -4q31 0 54 25t39 66.5t26 95.5t15 111.5t7 114.5t2 105v86t-2 88z" />
    <glyph glyph-name="h" unicode="h" horiz-adv-x="769" 
d="M117 85q16 34 37 73.5t45 81t51 82.5t56 77q29 35 58.5 50.5t55.5 15.5t45.5 -10.5t32 -28.5t19 -42t6.5 -52q0 -23 -4.5 -61.5t-4.5 -80.5q0 -24 2.5 -47.5t9 -42t19.5 -30t34 -11.5q24 0 48 13.5t47 36t44 50t38 55t30 53t21 42.5q10 23 35 23q17 0 27 -12t10 -26
q0 -8 -3 -15q-4 -8 -15.5 -33t-31 -58t-45.5 -69t-57.5 -66.5t-68 -50t-76.5 -19.5q-46 0 -74 19.5t-43.5 49.5t-21 67t-5.5 72q0 18 1.5 38.5t3.5 40.5t3.5 37.5t1.5 29.5q0 31 -8.5 42t-19.5 11q-16 0 -36.5 -18.5t-43 -48.5t-45 -67.5t-43.5 -74.5t-38 -70.5t-28 -55.5
q-21 -42 -42.5 -56.5t-38.5 -14.5q-31 0 -47.5 24.5t-16.5 59.5v63q0 189 0.5 360.5t5 319t15 267t31.5 204t53.5 130.5t81.5 46q42 0 71 -23t47 -62.5t26 -92t8 -110.5q0 -118 -21.5 -231.5t-57.5 -221.5t-84 -210.5t-101 -199.5v-43v-50v-47v-35zM117 454
q42 92 76.5 179.5t59 174.5t38.5 176.5t14 186.5q0 16 -1.5 51t-9 71t-23 63t-43.5 27q-22 0 -38 -29.5t-28 -80t-20 -117.5t-13 -142t-7.5 -154t-3.5 -153.5t-1 -139.5v-113z" />
    <glyph glyph-name="i" unicode="i" horiz-adv-x="430" 
d="M201 785q0 -38 -26.5 -64.5t-64.5 -26.5t-64.5 26.5t-26.5 64.5q0 19 7 35.5t19.5 29t29 19.5t35.5 7t35.5 -7t29 -19.5t19.5 -29t7 -35.5zM39 199q0 144 18 287q2 14 12.5 24.5t27.5 10.5q15 0 25 -11.5t10 -26.5q0 -6 -2.5 -36t-6 -71.5t-6 -88t-2.5 -85.5
q0 -53 10.5 -85.5t27 -50.5t35 -24t35.5 -6q28 0 58 20t61.5 56t63.5 86.5t63 112.5q5 10 14 15.5t20 5.5q16 0 26.5 -12t10.5 -26q0 -10 -4 -17q-12 -23 -30 -56t-41 -68t-50.5 -69.5t-58.5 -62t-65 -44.5t-69 -17q-45 0 -79 19t-57.5 51t-35 75.5t-11.5 93.5zM145 785
q0 14 -10.5 24.5t-24.5 10.5t-24 -10.5t-10 -24.5t10 -24t24 -10t24.5 10t10.5 24z" />
    <glyph glyph-name="j" unicode="j" horiz-adv-x="340" 
d="M210 785q0 -38 -26.5 -64.5t-64.5 -26.5t-64.5 26.5t-26.5 64.5q0 19 7 35.5t19.5 29t29 19.5t35.5 7t35.5 -7t29 -19.5t19.5 -29t7 -35.5zM114 -35q37 40 76 84.5t75 89t66 88t47 82.5q9 22 34 22q17 0 27.5 -11.5t10.5 -25.5q0 -8 -3 -15q-23 -52 -63 -108
t-86.5 -111.5t-95 -108t-88.5 -97.5q1 -80 2.5 -157t1.5 -146q0 -275 -54 -408t-161 -133q-37 0 -68 16t-53 46t-34.5 74t-12.5 100q0 62 16.5 135.5t53 155.5t94.5 169.5t140 177.5q0 86 1 171.5t3.5 164t7 147t10.5 121.5q2 15 12.5 24t25.5 9t26 -11t11 -27
q0 -6 -3.5 -39t-7.5 -97t-7.5 -158.5t-3.5 -223.5zM153 785q0 14 -10 24.5t-24 10.5t-24.5 -10.5t-10.5 -24.5t10.5 -24t24.5 -10t24 10t10 24zM43 -443q0 51 -1 102t-2 111q-62 -75 -105.5 -148t-71.5 -140t-40.5 -127t-12.5 -109q0 -28 4 -56.5t14.5 -52t28.5 -38
t46 -14.5q11 0 26 5t30.5 21.5t30.5 47.5t27 83.5t19 129.5t7 185z" />
    <glyph glyph-name="k" unicode="k" horiz-adv-x="715" 
d="M290 123q17 -38 56 -60.5t88 -22.5q15 0 49 4.5t78.5 30t94.5 80.5t97 155q5 11 14 16.5t20 5.5q17 0 27.5 -12t10.5 -26q0 -6 -4 -16q-35 -73 -78 -130.5t-93 -98t-104.5 -62t-111.5 -21.5q-45 0 -84.5 14t-68 37.5t-45 53t-16.5 60.5q0 4 1 11t5.5 15.5t13 16
t23.5 12.5q41 12 75.5 29.5t59.5 39.5t39 48.5t14 57.5q0 27 -18 44t-44 17q-27 0 -53 -18.5t-50.5 -49t-46.5 -70t-40.5 -82.5t-32.5 -85.5t-23 -78.5q-3 -11 -6.5 -24t-10.5 -24.5t-17 -19t-26 -7.5q-15 0 -29 12.5t-14 42.5q0 6 0.5 46t1.5 104.5t2.5 148t2.5 177
t3 192.5t3 193t2.5 178.5t2.5 150t1.5 107t0.5 49.5q0 16 12 26.5t26 10.5q16 0 27 -10.5t11 -27.5q0 -2 -0.5 -39.5t-1.5 -100.5t-2.5 -147t-3 -178.5t-3 -194.5t-3 -195t-2.5 -181t-2 -152q16 51 41 107.5t59 104.5t76.5 79t94.5 31q29 0 54 -10.5t43.5 -29t29 -43.5
t10.5 -54q0 -45 -20 -82.5t-53 -67t-75.5 -51.5t-87.5 -36z" />
    <glyph glyph-name="l" unicode="l" horiz-adv-x="501" 
d="M607 277q-11 -23 -27.5 -54.5t-37.5 -65.5t-47 -67.5t-56.5 -60t-65 -43t-73.5 -16.5q-60 0 -103 37t-73 97t-48.5 136.5t-28.5 156t-13.5 154.5t-3.5 133q0 84 5.5 174t17.5 176t30.5 163t44 135t58.5 92t75 34q33 0 59.5 -15.5t44.5 -50.5t28 -91t10 -137
q0 -100 -21 -206.5t-57 -214.5t-85 -215.5t-105 -209.5q25 -127 67 -199.5t101 -72.5q40 0 77 31.5t68 74.5t54.5 87.5t36.5 71.5q5 10 14 15.5t20 5.5q17 0 27.5 -12t10.5 -27q0 -6 -4 -16zM106 679q0 -64 3 -123t8 -113q42 81 80 172.5t67 185t46.5 186t17.5 176.5
q0 118 -19 169t-51 51q-21 0 -40.5 -29t-36.5 -79t-31 -118t-23.5 -146t-15 -163t-5.5 -169z" />
    <glyph glyph-name="m" unicode="m" horiz-adv-x="1309" 
d="M269 89q15 30 38.5 74.5t49 89.5t50 85t41.5 61q29 35 60 50t57 15t44.5 -11t30.5 -29.5t18 -43t6 -52.5q0 -16 -1.5 -42t-3 -56t-3 -62t-2.5 -60q15 30 34 66.5t38.5 72.5t37.5 67.5t33 51.5q43 59 80.5 79t66.5 20q34 0 56 -12.5t34.5 -32t17.5 -43.5t5 -46
q0 -34 -5 -71t-5 -88q0 -21 2 -42t8.5 -37t20.5 -26t38 -10q26 0 51 13.5t48 35.5t43.5 50t37.5 56t30 53.5t21 43.5q5 11 14 17t20 6q17 0 27.5 -12.5t10.5 -26.5q0 -7 -3 -14q-4 -8 -16 -33.5t-32 -58t-46.5 -68.5t-58.5 -66.5t-69 -50t-78 -19.5q-44 0 -71.5 15.5
t-44 41.5t-22.5 60t-6 71q0 49 5 90.5t5 64.5q0 25 -4.5 38t-11 18.5t-12.5 6t-9 0.5q-24 0 -50.5 -26.5t-54.5 -70.5t-57.5 -100t-59.5 -114q-17 -32 -28.5 -53t-22 -33t-20.5 -17t-22 -5q-26 0 -39.5 18t-13.5 47q0 15 1 40t2 55t3 62t3 61.5t2 52.5t1 35q0 26 -9 37.5
t-21 11.5q-11 0 -24.5 -8t-31.5 -31q-14 -18 -35.5 -52.5t-45.5 -76.5t-47.5 -86t-40.5 -79q-21 -42 -42 -57.5t-41 -15.5q-29 0 -43 17.5t-14 46.5q0 3 1.5 36t3.5 80.5t4.5 101.5t4.5 101q1 25 -2 46t-8 25q-8 -2 -31.5 -37t-59.5 -122q-5 -11 -15 -17t-21 -6
q-17 0 -27 11.5t-10 26.5q0 7 3 15q45 107 86 157.5t80 50.5q23 0 38.5 -10.5t24.5 -27t13 -37.5t4 -41q0 -89 -4.5 -163t-9.5 -149z" />
    <glyph glyph-name="n" unicode="n" horiz-adv-x="911" 
d="M260 90q16 33 37 72.5t45 80t50.5 80.5t55.5 76q29 35 58.5 50.5t55.5 15.5q52 0 77 -38t25 -94q0 -13 -1.5 -31.5t-3 -39.5t-3 -42.5t-1.5 -40.5q0 -24 2.5 -46t9.5 -38.5t20 -26t34 -9.5q38 0 74 29.5t66.5 70t53 82.5t33.5 68q5 11 14.5 17t20.5 6q17 0 27.5 -12.5
t10.5 -26.5q0 -7 -3 -14q-4 -8 -16 -33t-31.5 -57.5t-45.5 -69t-57.5 -66.5t-68 -50t-76.5 -20q-45 0 -73 17.5t-44 46t-21.5 63t-5.5 69.5q0 15 1.5 34t4 40t4 42t1.5 40q0 32 -10 43.5t-18 11.5q-16 0 -36.5 -18.5t-43 -48.5t-46 -67.5t-44 -74.5t-38 -70.5t-27.5 -55.5
q-20 -42 -40 -56.5t-41 -14.5q-29 0 -46.5 17.5t-17.5 49.5q0 7 2 27.5t5 49t6 61.5t6 65.5t5 60.5t2 47q0 25 -2 48t-8 28q-9 -3 -32 -37.5t-59 -121.5q-5 -11 -15 -17t-21 -6q-17 0 -27 11.5t-10 26.5q0 7 3 15q45 107 84.5 157.5t78.5 50.5q23 0 39 -11.5t25.5 -30.5
t14 -42t4.5 -47q0 -18 -2.5 -56t-6.5 -81.5t-7.5 -86.5t-6.5 -72z" />
    <glyph glyph-name="o" unicode="o" horiz-adv-x="647" 
d="M499 110q-25 0 -44 4q-15 -30 -36 -55.5t-48.5 -44.5t-61.5 -30t-74 -11q-47 0 -86 16.5t-68 46t-45 71t-16 91.5q0 64 23 111.5t53 79t60 47t45 15.5q17 0 25.5 -9t8.5 -24q0 -17 -10.5 -25.5t-26.5 -16.5t-34 -22.5t-33.5 -36.5t-25.5 -52t-10 -67q0 -33 10 -61.5
t29 -49t45 -32t58 -11.5q57 0 94.5 26.5t57.5 67.5q-59 31 -97 88t-38 128q0 57 27.5 93t72.5 36q27 0 51 -13t42.5 -41t29.5 -72t11 -105q0 -32 -8 -67q6 -1 12 -1h13q34 0 61 8t49 24t39.5 41t33.5 58q3 6 13 11.5t20 5.5q13 0 24.5 -10.5t11.5 -27.5q0 -8 -4 -17.5
t-8 -17.5q-17 -30 -39.5 -57.5t-53 -48t-68.5 -32.5t-85 -11zM328 362q0 -19 5 -40t15.5 -41.5t26 -39t36.5 -31.5q3 21 3 41q0 27 -4 55t-11.5 51.5t-18.5 38t-26 14.5q-6 0 -16 -9t-10 -39z" />
    <glyph glyph-name="p" unicode="p" horiz-adv-x="723" 
d="M551 279q0 -92 -33 -157t-81 -99h4q59 0 107.5 26.5t87.5 68t70 92.5t55 99q5 11 14.5 17t20.5 6q17 0 27 -12t10 -26q0 -8 -3 -15q-26 -58 -62 -116.5t-84 -105.5t-108 -76.5t-133 -29.5q-53 0 -103 16.5t-88 51.5q-14 11 -24 23.5t-16 23.5q-2 2 -2 4q-6 9 -6 19
q0 13 9 24q1 2 2 2.5t2 1.5q10 9 22 10h3q5 0 7 -1q1 0 1.5 -0.5t1.5 -0.5q3 0 7 -2q1 -1 2 -1q9 -6 15 -15q7 -12 16 -22q8 -8 19 -14.5t25 -6.5q25 0 50 15t45 43t32.5 68t12.5 89q0 36 -7.5 61.5t-19 41.5t-24.5 23.5t-25 7.5q-27 0 -54.5 -28t-54.5 -71t-53.5 -95
t-53.5 -101q-2 -162 -5.5 -309t-12 -273t-23.5 -228t-41 -174.5t-64 -111.5t-93 -39q-17 0 -39 7t-41 28.5t-32 61.5t-13 107q0 85 21 197t59.5 237.5t91.5 257.5t117 257q0 35 0.5 69t0.5 66q-13 -15 -31 -15q-17 0 -27 12t-10 26q0 7 3 15q24 55 37 104.5t19.5 87
t7.5 59.5t1 23q0 15 11 26t27 11q15 0 26 -10.5t11 -26.5v-307q23 39 46 77t48.5 68t55 48.5t65.5 18.5q34 0 62 -16t48 -44t30.5 -66.5t10.5 -82.5zM107 -42q-49 -110 -88.5 -221t-67 -214t-42.5 -193t-15 -158q0 -17 2 -37t8 -37t17 -28.5t29 -11.5q33 0 57 41.5t40.5 112
t27.5 162t17.5 191.5t9.5 201.5t5 191.5z" />
    <glyph glyph-name="q" unicode="q" horiz-adv-x="623" 
d="M400 -102q42 55 81 110t72.5 108t61 102t46.5 91q5 11 13.5 16.5t19.5 5.5q17 0 28 -11.5t11 -26.5q0 -7 -3 -14q-22 -49 -54 -105.5t-71.5 -117.5t-85 -124t-94.5 -124q43 -50 80.5 -124t64.5 -159t42.5 -173t15.5 -165q0 -87 -17 -139t-41 -80t-50 -36.5t-44 -8.5
q-55 0 -86.5 34.5t-48 101t-21 164.5t-4.5 226q0 84 1.5 170t4.5 169t7 159.5t9 141.5q-32 -48 -71.5 -74t-87.5 -26q-36 0 -65.5 14t-50.5 38.5t-32 57.5t-11 71q0 78 26.5 137.5t67.5 99.5t90.5 60t95.5 20q31 0 57 -8.5t44 -18.5t28.5 -18.5t11.5 -9.5q11 -10 11 -27
q0 -15 -10.5 -26.5t-27.5 -11.5q-9 0 -14.5 3t-11.5 8q-10 8 -29.5 21t-57.5 13q-30 0 -66 -13.5t-67 -42.5t-52 -74.5t-21 -109.5q0 -46 20.5 -76.5t65.5 -30.5q22 0 48.5 14.5t51 43.5t44 72t27.5 100q2 14 13 23.5t25 9.5q16 0 26.5 -11.5t10.5 -26.5q0 -2 -2.5 -34.5
t-6.5 -86t-9 -123.5t-9 -148zM393 -272q-1 -31 -1.5 -60t-0.5 -57q0 -129 1 -240.5t8.5 -194t25 -130t49.5 -47.5q26 0 41.5 22.5t23.5 53.5t10.5 63.5t2.5 52.5q0 67 -12.5 142t-34 148t-51 137.5t-62.5 109.5z" />
    <glyph glyph-name="r" unicode="r" horiz-adv-x="621" 
d="M143 411q-4 -27 -10 -50.5t-11.5 -41t-9.5 -28.5t-5 -12q-10 -23 -35 -23q-14 0 -26 10.5t-12 26.5q0 6 2 9t6 12t10 30t15 65q-17 0 -35 1t-33.5 7t-25.5 19t-10 36q0 17 9.5 46t25.5 57t36 48.5t40 20.5q23 0 37.5 -17t22.5 -41.5t11.5 -51.5t3.5 -47q17 0 33.5 0.5
t31.5 0.5q57 0 87 -25t30 -82q0 -23 -3 -48t-7 -51.5t-7 -52.5t-3 -51q0 -36 10 -59.5t25 -37.5t32 -19.5t31 -5.5q43 0 81 28t70 67.5t57.5 83.5t42.5 77q5 9 14 14t19 5q18 0 28 -11.5t10 -25.5q0 -10 -4 -18q-23 -41 -53.5 -92.5t-69.5 -96.5t-87.5 -76t-106.5 -31
q-36 0 -68 13.5t-55.5 39t-37.5 63t-14 84.5q0 50 10 99.5t10 94.5q0 19 -8.5 28.5t-37.5 9.5h-30.5t-35.5 -1zM76 485q0 7 -0.5 18.5t-2 22.5t-4 19t-5.5 8t-7.5 -7.5t-9.5 -18t-9 -22.5t-6 -20h44z" />
    <glyph glyph-name="s" unicode="s" horiz-adv-x="520" 
d="M149 370q-6 -16 -14.5 -36t-19.5 -42q-9 -17 -18.5 -26.5t-24.5 -9.5q-17 0 -27 10.5t-10 24.5q0 5 1 8.5t5 11.5q26 50 38.5 87.5t20.5 78.5q-7 23 -10 39t-3 33q0 33 14 53.5t39 20.5q23 0 36.5 -20t13.5 -49q0 -16 -3 -32t-8 -40q23 -57 46 -101t41 -80.5t29.5 -68.5
t11.5 -64q0 -42 -17 -80t-56 -64q5 -1 10 -1h10q57 0 105 26t86.5 67.5t68.5 92t52 100.5q10 23 28 23q17 0 26.5 -12t9.5 -26q0 -8 -3 -15q-11 -27 -28.5 -61.5t-42 -71t-56.5 -71.5t-71.5 -62.5t-86.5 -44t-103 -16.5q-67 0 -124.5 23.5t-93.5 77.5q-6 9 -6 19
q0 15 11.5 26.5t26.5 11.5q16 0 27 -11q1 -2 7 -6.5t14.5 -10t20 -9.5t23.5 -4q24 0 40.5 10t26.5 24.5t14.5 31t4.5 28.5q0 25 -8 50t-20.5 50t-27 51.5t-26.5 55.5z" />
    <glyph glyph-name="t" unicode="t" horiz-adv-x="478" 
d="M848 1001q0 -16 -11 -25.5t-27 -9.5h-507v-11q0 -61 -9 -130t-24.5 -137.5t-35 -133.5t-40 -120t-40.5 -95.5t-36 -60.5q13 -46 31 -85.5t40.5 -69t48.5 -46.5t56 -17q35 0 69.5 29.5t64 70t52 82t32.5 66.5q10 24 35 24q17 0 27.5 -12t10.5 -26q0 -7 -3 -14t-14.5 -32
t-30 -58t-43 -69.5t-55 -66.5t-65.5 -50t-74 -20q-69 0 -124 45t-93.5 126t-58.5 192t-20 243q0 33 1 77.5t4 94t9 102t16 102.5h-359q-16 0 -27 9.5t-11 25.5t11 25.5t27 9.5h376q10 36 23.5 66t31 52t39 34.5t47.5 12.5q25 0 43.5 -12.5t31.5 -34.5t20.5 -52t11.5 -66h511
q16 0 27 -9.5t11 -25.5zM95 378q30 66 54.5 142.5t42 154.5t27 153t9.5 138h-118q-14 -62 -22.5 -153.5t-8.5 -222.5q0 -73 4 -122.5t12 -89.5zM188 1126q-9 0 -26 -19.5t-34 -70.5h96q-5 42 -14.5 66t-21.5 24zM111 306v-1v1z" />
    <glyph glyph-name="u" unicode="u" horiz-adv-x="717" 
d="M370 112q-35 -57 -81.5 -90t-93.5 -33q-38 0 -68 14t-52 39.5t-33.5 61.5t-11.5 81q0 70 13.5 124t29.5 90.5t30 55.5l14 19q5 6 12.5 9t15.5 3q16 0 26.5 -11.5t10.5 -26.5q0 -6 -2.5 -12t-5.5 -12q-5 -9 -16 -27.5t-23 -48.5t-21 -70.5t-9 -92.5q0 -59 23.5 -89.5
t66.5 -30.5q18 0 41.5 11.5t46 35.5t39.5 61t22 87l15 172q2 15 13 25t26 10q17 0 27 -12.5t10 -28.5l-13 -166q-2 -21 1.5 -55t14.5 -67t33 -56.5t58 -23.5q26 0 51 13.5t48 35.5t42.5 49.5t36 55.5t28.5 53.5t20 43.5q5 11 14 17t20 6q18 0 28 -12t10 -26q0 -8 -3 -15
q-4 -8 -15.5 -33.5t-30 -58t-44.5 -68.5t-58 -66.5t-69.5 -50t-80.5 -19.5q-59 0 -98 33.5t-58 95.5z" />
    <glyph glyph-name="v" unicode="v" horiz-adv-x="678" 
d="M443 315q-15 -70 -43 -130.5t-59.5 -105.5t-63.5 -71t-55 -28q-26 0 -57.5 26t-60 72.5t-47.5 110.5t-19 139q0 66 11.5 100t14.5 39q5 9 13.5 14t19.5 5q17 0 27 -11.5t10 -25.5q0 -10 -4 -17q-1 -2 -9 -27t-8 -75q0 -59 12 -109t29 -86t35.5 -56.5t30.5 -20.5
q8 0 23.5 15t33 41t36 62t34 78.5t25 90t9.5 96.5q0 10 -0.5 19.5t-0.5 19.5q0 17 10.5 28.5t27.5 11.5q13 0 23.5 -8t13.5 -22q0 1 4 -16t13.5 -43.5t24 -57.5t35 -57.5t47.5 -44.5t62 -18q19 0 33 8t23 18t13.5 19t4.5 10q4 11 13.5 17.5t21.5 6.5q16 0 27 -11.5t11 -26.5
q0 -7 -3 -14q-6 -14 -17.5 -32t-29.5 -34t-42.5 -26.5t-54.5 -10.5q-35 0 -65 12.5t-54.5 32t-44.5 44t-34 49.5z" />
    <glyph glyph-name="w" unicode="w" horiz-adv-x="949" 
d="M739 278q-3 -52 -14 -104.5t-34.5 -94.5t-61.5 -68.5t-94 -26.5q-35 0 -61.5 10.5t-46 28t-32.5 40t-22 47.5q-35 -58 -82.5 -89.5t-94.5 -31.5q-38 0 -68.5 14t-52 39.5t-33.5 61.5t-12 81q0 75 13.5 129.5t30 89.5t30.5 52.5l14 17.5q5 6 12.5 9t15.5 3
q16 0 26.5 -11.5t10.5 -26.5q0 -11 -8 -24q-4 -6 -15.5 -23t-23.5 -46t-21.5 -71t-9.5 -99q0 -59 24 -89.5t67 -30.5q21 0 46 11.5t47 35.5t38 61t20 87l13 172q1 15 12.5 25t26.5 10q17 0 27 -12.5t10 -28.5l-11 -165q-3 -53 3.5 -91t21.5 -62.5t37 -36t49 -11.5
q36 0 61 21t40 57t21.5 83.5t6.5 100.5q0 63 -7 105t-7 56q0 15 11 26.5t27 11.5q14 0 24 -8.5t13 -22.5q1 -4 6 -23t14 -45.5t23.5 -56t35 -54.5t47 -41.5t60.5 -16.5q19 0 32.5 7.5t22.5 17.5t13.5 19l5.5 11q5 11 14.5 17.5t20.5 6.5q17 0 27.5 -12.5t10.5 -26.5
q0 -12 -10.5 -32t-29.5 -38.5t-46.5 -32t-60.5 -13.5q-29 0 -54 8.5t-46.5 22.5t-39.5 32t-33 38z" />
    <glyph glyph-name="x" unicode="x" horiz-adv-x="753" 
d="M634 566q-154 -190 -281 -400q35 -52 77 -86t95 -34q47 0 89 27t76.5 66.5t60 85t39.5 82.5q10 25 35 25q17 0 27.5 -11.5t10.5 -26.5q0 -5 -2 -13q1 2 -9 -20t-30 -56.5t-49 -75.5t-66.5 -76.5t-83.5 -59t-99 -23.5q-66 0 -118.5 35t-94.5 89q-17 -30 -33 -60l-32 -60
q-11 -21 -34 -21q-17 0 -27.5 12t-10.5 26q0 8 5 18q20 39 41 78t44 77q-34 59 -58 120.5t-38 115.5l-59 -122q-11 -22 -34 -22q-17 0 -27.5 12t-10.5 26q0 9 4 16l109 228q5 9 14 15t20 6q16 0 26 -10.5t12 -25.5q1 -14 7.5 -44t18 -68.5t27 -82.5t36.5 -87
q120 195 265 373q10 13 29 13q16 0 27 -11t11 -26q0 -14 -9 -24z" />
    <glyph glyph-name="y" unicode="y" horiz-adv-x="629" 
d="M410 -14q35 35 71 71.5t70 76.5t63.5 83.5t52.5 92.5q5 11 14 16.5t20 5.5q17 0 27.5 -12t10.5 -27q0 -8 -3 -15q-31 -65 -71 -119t-84 -102.5t-89 -94t-86 -91.5q-4 -69 0 -138.5t4 -147.5q0 -64 -4 -128t-13 -122.5t-24.5 -109.5t-39.5 -88.5t-56 -59t-75 -21.5
q-71 0 -109 49t-38 137q0 48 10.5 103t29.5 113.5t45.5 118.5t57.5 117t66 108.5t71 93.5q2 48 4.5 99.5t5.5 95.5q-26 -46 -64.5 -74t-84.5 -28q-76 0 -119 51t-43 140q0 65 12.5 118.5t27 92t26.5 59t12 19.5q11 17 31 17q17 0 27.5 -11.5t10.5 -26.5q0 -11 -6 -20
q1 1 -9.5 -16.5t-23 -50.5t-23 -79t-10.5 -101t20 -86t65 -31q57 0 103 84.5t78 245.5q2 13 12 21.5t24 8.5q16 0 27 -11t11 -27q0 -3 -4 -35.5t-9.5 -86.5t-11.5 -125.5t-10 -152.5zM330 -226q-45 -65 -82.5 -137t-64.5 -143t-42 -136t-15 -116q0 -52 17 -81.5t54 -29.5
q33 0 58.5 32.5t43 92.5t26.5 145.5t9 191.5q0 43 -1.5 87t-2.5 94z" />
    <glyph glyph-name="z" unicode="z" horiz-adv-x="735" 
d="M507 -148q6 -81 6 -194q0 -121 -15 -222.5t-44 -175t-72 -114.5t-99 -41q-28 0 -53 13t-43.5 37t-29 57t-10.5 74q0 61 14.5 129t47.5 142t87 154.5t133 167.5q-4 43 -10.5 80t-16.5 64t-23.5 42t-32.5 15q-6 0 -14 -2q-23 -27 -41.5 -42t-33.5 -23t-25.5 -10t-15.5 -2
q-17 0 -32.5 9.5t-15.5 35.5q0 9 6.5 23t21.5 29.5t39.5 29t59.5 20.5q66 71 103 130.5t37 111.5q0 45 -28 72t-71 27q-60 0 -120 -56t-108 -155q-11 -22 -35 -22q-17 0 -27 12t-10 26q0 9 4 16q59 121 136 188t161 67q34 0 65.5 -12t55.5 -34.5t38 -55t14 -74.5
q0 -35 -9.5 -67.5t-25.5 -63t-37 -58.5t-43 -54q27 -12 44.5 -34t29 -49t17.5 -56t10 -56q38 41 79 87t79 93t69.5 92.5t49.5 85.5q5 11 14 16.5t20 5.5q17 0 27.5 -11.5t10.5 -25.5q0 -8 -3 -15q-22 -50 -62 -107.5t-87 -115t-96 -110.5t-90 -94zM436 -228
q-63 -77 -104 -145t-65.5 -128t-34.5 -111.5t-10 -94.5q0 -51 18 -82t44 -31q35 0 63.5 36t48.5 98.5t31 147.5t11 183q0 26 -0.5 58.5t-1.5 68.5z" />
    <glyph glyph-name="germandbls" unicode="&#xdf;" horiz-adv-x="678" 
d="M785 279q-26 -59 -63.5 -117.5t-86 -105t-108.5 -75.5t-132 -29q-66 0 -123.5 23.5t-92.5 77.5q-6 9 -6 19q0 15 11 25t27 10t27 -11q1 -2 7 -6.5t14.5 -10t19.5 -9.5t24 -4q19 0 35.5 8.5t27.5 22.5t17.5 32.5t6.5 39.5q0 35 -15 67.5t-37 64t-48 63.5t-48 65.5t-37 69
t-15 75.5q0 56 14.5 117t31.5 117q44 149 60 252.5t16 164.5q0 53 -6 84t-15.5 47.5t-22.5 21.5t-27 5q-15 0 -28 -10t-23.5 -32t-19.5 -57.5t-17 -86.5q-8 -49 -13 -106t-8 -117.5t-5 -122t-3 -120.5q-1 -65 -2 -159.5t-2 -207t-2 -238t-1.5 -252t-0.5 -248t-0.5 -226.5
t-0.5 -188.5v-132.5q0 -16 -10.5 -27t-26.5 -11t-27 11t-11 27v132.5v188.5t0.5 227t1 248.5t1 252t1.5 238.5t2 207.5t2 159.5q3 172 11.5 307t29 228t57 141.5t96.5 48.5q145 0 145 -234q0 -74 -15.5 -171t-49.5 -220q-6 -23 -15.5 -55t-18.5 -67t-15.5 -71t-6.5 -66
q0 -29 14.5 -58.5t37 -60t48 -63.5t48 -68.5t37 -74t14.5 -80.5q0 -47 -20 -84t-49 -60q64 0 113 26t87 67t67 91.5t53 99.5q5 11 13.5 16.5t19.5 5.5q17 0 28 -11.5t11 -26.5q0 -7 -3 -14z" />
    <glyph glyph-name="Agrave" unicode="&#xc0;" horiz-adv-x="2165" 
d="M1956 5q4 -7 4 -17q0 -15 -10.5 -26t-27.5 -11q-11 0 -19.5 5t-13.5 15q-19 37 -33.5 92.5t-25 123.5t-17 146.5t-10.5 162.5q-75 -10 -168.5 -22t-213.5 -28q-84 -12 -171 -21q-214 -233 -450.5 -353.5t-474.5 -120.5q-106 0 -183.5 20.5t-128 46t-76 47.5t-27.5 24
q-10 10 -10 26t11 27t26 11q17 0 28 -12q2 -2 24 -20.5t65.5 -39.5t110.5 -38t159 -17q126 0 241 34t217.5 88.5t191 124.5t160.5 142q-71 -6 -141 -9t-138 -3q-134 0 -255 15t-213 50.5t-146.5 94.5t-54.5 147q0 40 16.5 80t39.5 72.5t48 53t43 20.5q14 0 26 -10t12 -27
q0 -9 -4 -17.5t-12 -13.5q-2 -2 -17 -14t-32 -32.5t-31 -49t-14 -61.5q0 -57 39.5 -100.5t115 -73t185.5 -44.5t251 -15q81 0 171 5t190 15q48 53 85 100t63 84q43 61 90 130t93.5 140t91 140.5t83.5 131t70 112t51 83.5q6 27 18 49.5t39 22.5q15 0 29 -12.5t14 -31.5
q0 -14 -10 -30t-19 -27q-3 -19 -9.5 -81t-13 -151.5t-11 -197t-4.5 -217.5v-81t2 -81q150 19 219 26.5t73 7.5q13 0 25.5 -10.5t12.5 -27.5q0 -14 -9.5 -24.5t-24.5 -12.5q-18 -2 -42 -5t-59 -7t-82 -9.5t-110 -13.5q3 -82 9.5 -157.5t16 -140.5t22.5 -117t30 -85zM1411 521
q118 16 214.5 28.5t174.5 22.5q-1 43 -1.5 86t-0.5 87q0 141 5 269.5t14 223.5q-40 -63 -88.5 -139.5t-100.5 -156t-105 -157.5t-101 -146q-24 -34 -49 -66t-50 -63q22 2 43.5 5t44.5 6zM1970 1626q10 -10 10 -24q0 -13 -9.5 -23t-23.5 -10q-13 0 -23 9l-160 152
q-10 9 -10 23t10 24t23 10q12 0 23 -9l160 -152v0z" />
    <glyph glyph-name="agrave" unicode="&#xe0;" horiz-adv-x="704" 
d="M811 279q-4 -8 -16.5 -33.5t-32 -58.5t-45.5 -69t-58 -66t-69 -49.5t-78 -19.5q-58 0 -97.5 37t-57.5 93q-34 -57 -81 -90.5t-94 -33.5q-37 0 -67 13.5t-51 38t-32.5 57.5t-11.5 72q0 78 26.5 137.5t67.5 99.5t90.5 60t95.5 20q31 0 57 -8.5t44.5 -18.5t28.5 -18.5
t11 -9.5q11 -13 11 -27q0 -15 -11 -26.5t-26 -11.5q-16 0 -27 11q-2 2 -9 7.5t-19 11.5t-28.5 10.5t-37.5 4.5q-31 0 -66 -14t-64 -43.5t-48.5 -74t-19.5 -105.5q0 -19 4 -38.5t14 -35.5t27 -26t42 -10q18 0 41.5 12t45 37t39 63t24.5 90q2 14 13 23.5t26 9.5q14 0 24.5 -11
t11.5 -25q1 -19 4 -53.5t13.5 -68.5t31.5 -59t58 -25q24 0 47.5 13t46 34.5t43 49t37.5 55.5t30 54t22 45q5 11 14.5 17t20.5 6q17 0 27.5 -12.5t10.5 -26.5q0 -7 -3 -14zM348 641q10 -10 10 -24q0 -13 -9.5 -23t-23.5 -10q-13 0 -23 9l-160 152q-10 9 -10 23t10 24t23 10
q12 0 23 -9l160 -152v0z" />
    <glyph glyph-name="Aacute" unicode="&#xc1;" horiz-adv-x="2165" 
d="M1956 5q4 -7 4 -17q0 -15 -10.5 -26t-27.5 -11q-11 0 -19.5 5t-13.5 15q-19 37 -33.5 92.5t-25 123.5t-17 146.5t-10.5 162.5q-75 -10 -168.5 -22t-213.5 -28q-84 -12 -171 -21q-214 -233 -450.5 -353.5t-474.5 -120.5q-106 0 -183.5 20.5t-128 46t-76 47.5t-27.5 24
q-10 10 -10 26t11 27t26 11q17 0 28 -12q2 -2 24 -20.5t65.5 -39.5t110.5 -38t159 -17q126 0 241 34t217.5 88.5t191 124.5t160.5 142q-71 -6 -141 -9t-138 -3q-134 0 -255 15t-213 50.5t-146.5 94.5t-54.5 147q0 40 16.5 80t39.5 72.5t48 53t43 20.5q14 0 26 -10t12 -27
q0 -9 -4 -17.5t-12 -13.5q-2 -2 -17 -14t-32 -32.5t-31 -49t-14 -61.5q0 -57 39.5 -100.5t115 -73t185.5 -44.5t251 -15q81 0 171 5t190 15q48 53 85 100t63 84q43 61 90 130t93.5 140t91 140.5t83.5 131t70 112t51 83.5q6 27 18 49.5t39 22.5q15 0 29 -12.5t14 -31.5
q0 -14 -10 -30t-19 -27q-3 -19 -9.5 -81t-13 -151.5t-11 -197t-4.5 -217.5v-81t2 -81q150 19 219 26.5t73 7.5q13 0 25.5 -10.5t12.5 -27.5q0 -14 -9.5 -24.5t-24.5 -12.5q-18 -2 -42 -5t-59 -7t-82 -9.5t-110 -13.5q3 -82 9.5 -157.5t16 -140.5t22.5 -117t30 -85zM1411 521
q118 16 214.5 28.5t174.5 22.5q-1 43 -1.5 86t-0.5 87q0 141 5 269.5t14 223.5q-40 -63 -88.5 -139.5t-100.5 -156t-105 -157.5t-101 -146q-24 -34 -49 -66t-50 -63q22 2 43.5 5t44.5 6zM1844 1626l160 152q10 9 23 9t23 -10t10 -24t-10 -23l-160 -152q-11 -9 -23 -9
q-14 0 -23.5 10t-9.5 23q0 14 10 24z" />
    <glyph glyph-name="aacute" unicode="&#xe1;" horiz-adv-x="704" 
d="M811 279q-4 -8 -16.5 -33.5t-32 -58.5t-45.5 -69t-58 -66t-69 -49.5t-78 -19.5q-58 0 -97.5 37t-57.5 93q-34 -57 -81 -90.5t-94 -33.5q-37 0 -67 13.5t-51 38t-32.5 57.5t-11.5 72q0 78 26.5 137.5t67.5 99.5t90.5 60t95.5 20q31 0 57 -8.5t44.5 -18.5t28.5 -18.5
t11 -9.5q11 -13 11 -27q0 -15 -11 -26.5t-26 -11.5q-16 0 -27 11q-2 2 -9 7.5t-19 11.5t-28.5 10.5t-37.5 4.5q-31 0 -66 -14t-64 -43.5t-48.5 -74t-19.5 -105.5q0 -19 4 -38.5t14 -35.5t27 -26t42 -10q18 0 41.5 12t45 37t39 63t24.5 90q2 14 13 23.5t26 9.5q14 0 24.5 -11
t11.5 -25q1 -19 4 -53.5t13.5 -68.5t31.5 -59t58 -25q24 0 47.5 13t46 34.5t43 49t37.5 55.5t30 54t22 45q5 11 14.5 17t20.5 6q17 0 27.5 -12.5t10.5 -26.5q0 -7 -3 -14zM221 641l160 152q10 9 23 9t23 -10t10 -24t-10 -23l-160 -152q-11 -9 -23 -9q-14 0 -23.5 10t-9.5 23
q0 14 10 24z" />
    <glyph glyph-name="Acircumflex" unicode="&#xc2;" horiz-adv-x="2165" 
d="M1956 5q4 -7 4 -17q0 -15 -10.5 -26t-27.5 -11q-11 0 -19.5 5t-13.5 15q-19 37 -33.5 92.5t-25 123.5t-17 146.5t-10.5 162.5q-75 -10 -168.5 -22t-213.5 -28q-84 -12 -171 -21q-214 -233 -450.5 -353.5t-474.5 -120.5q-106 0 -183.5 20.5t-128 46t-76 47.5t-27.5 24
q-10 10 -10 26t11 27t26 11q17 0 28 -12q2 -2 24 -20.5t65.5 -39.5t110.5 -38t159 -17q126 0 241 34t217.5 88.5t191 124.5t160.5 142q-71 -6 -141 -9t-138 -3q-134 0 -255 15t-213 50.5t-146.5 94.5t-54.5 147q0 40 16.5 80t39.5 72.5t48 53t43 20.5q14 0 26 -10t12 -27
q0 -9 -4 -17.5t-12 -13.5q-2 -2 -17 -14t-32 -32.5t-31 -49t-14 -61.5q0 -57 39.5 -100.5t115 -73t185.5 -44.5t251 -15q81 0 171 5t190 15q48 53 85 100t63 84q43 61 90 130t93.5 140t91 140.5t83.5 131t70 112t51 83.5q6 27 18 49.5t39 22.5q15 0 29 -12.5t14 -31.5
q0 -14 -10 -30t-19 -27q-3 -19 -9.5 -81t-13 -151.5t-11 -197t-4.5 -217.5v-81t2 -81q150 19 219 26.5t73 7.5q13 0 25.5 -10.5t12.5 -27.5q0 -14 -9.5 -24.5t-24.5 -12.5q-18 -2 -42 -5t-59 -7t-82 -9.5t-110 -13.5q3 -82 9.5 -157.5t16 -140.5t22.5 -117t30 -85zM1411 521
q118 16 214.5 28.5t174.5 22.5q-1 43 -1.5 86t-0.5 87q0 141 5 269.5t14 223.5q-40 -63 -88.5 -139.5t-100.5 -156t-105 -157.5t-101 -146q-24 -34 -49 -66t-50 -63q22 2 43.5 5t44.5 6zM2040 1621q6 -9 6 -19q0 -13 -9.5 -23t-23.5 -10q-17 0 -27 13l-82 116l-84 -116
q-10 -13 -26 -13q-14 0 -24 10t-10 23q0 12 7 20l112 152q10 13 27 13t26 -14z" />
    <glyph glyph-name="acircumflex" unicode="&#xe2;" horiz-adv-x="704" 
d="M811 279q-4 -8 -16.5 -33.5t-32 -58.5t-45.5 -69t-58 -66t-69 -49.5t-78 -19.5q-58 0 -97.5 37t-57.5 93q-34 -57 -81 -90.5t-94 -33.5q-37 0 -67 13.5t-51 38t-32.5 57.5t-11.5 72q0 78 26.5 137.5t67.5 99.5t90.5 60t95.5 20q31 0 57 -8.5t44.5 -18.5t28.5 -18.5
t11 -9.5q11 -13 11 -27q0 -15 -11 -26.5t-26 -11.5q-16 0 -27 11q-2 2 -9 7.5t-19 11.5t-28.5 10.5t-37.5 4.5q-31 0 -66 -14t-64 -43.5t-48.5 -74t-19.5 -105.5q0 -19 4 -38.5t14 -35.5t27 -26t42 -10q18 0 41.5 12t45 37t39 63t24.5 90q2 14 13 23.5t26 9.5q14 0 24.5 -11
t11.5 -25q1 -19 4 -53.5t13.5 -68.5t31.5 -59t58 -25q24 0 47.5 13t46 34.5t43 49t37.5 55.5t30 54t22 45q5 11 14.5 17t20.5 6q17 0 27.5 -12.5t10.5 -26.5q0 -7 -3 -14zM417 636q6 -9 6 -19q0 -13 -9.5 -23t-23.5 -10q-17 0 -27 13l-82 116l-84 -116q-10 -13 -26 -13
q-14 0 -24 10t-10 23q0 12 7 20l112 152q10 13 27 13t26 -14z" />
    <glyph glyph-name="Atilde" unicode="&#xc3;" horiz-adv-x="2165" 
d="M1956 5q4 -7 4 -17q0 -15 -10.5 -26t-27.5 -11q-11 0 -19.5 5t-13.5 15q-19 37 -33.5 92.5t-25 123.5t-17 146.5t-10.5 162.5q-75 -10 -168.5 -22t-213.5 -28q-84 -12 -171 -21q-214 -233 -450.5 -353.5t-474.5 -120.5q-106 0 -183.5 20.5t-128 46t-76 47.5t-27.5 24
q-10 10 -10 26t11 27t26 11q17 0 28 -12q2 -2 24 -20.5t65.5 -39.5t110.5 -38t159 -17q126 0 241 34t217.5 88.5t191 124.5t160.5 142q-71 -6 -141 -9t-138 -3q-134 0 -255 15t-213 50.5t-146.5 94.5t-54.5 147q0 40 16.5 80t39.5 72.5t48 53t43 20.5q14 0 26 -10t12 -27
q0 -9 -4 -17.5t-12 -13.5q-2 -2 -17 -14t-32 -32.5t-31 -49t-14 -61.5q0 -57 39.5 -100.5t115 -73t185.5 -44.5t251 -15q81 0 171 5t190 15q48 53 85 100t63 84q43 61 90 130t93.5 140t91 140.5t83.5 131t70 112t51 83.5q6 27 18 49.5t39 22.5q15 0 29 -12.5t14 -31.5
q0 -14 -10 -30t-19 -27q-3 -19 -9.5 -81t-13 -151.5t-11 -197t-4.5 -217.5v-81t2 -81q150 19 219 26.5t73 7.5q13 0 25.5 -10.5t12.5 -27.5q0 -14 -9.5 -24.5t-24.5 -12.5q-18 -2 -42 -5t-59 -7t-82 -9.5t-110 -13.5q3 -82 9.5 -157.5t16 -140.5t22.5 -117t30 -85zM1411 521
q118 16 214.5 28.5t174.5 22.5q-1 43 -1.5 86t-0.5 87q0 141 5 269.5t14 223.5q-40 -63 -88.5 -139.5t-100.5 -156t-105 -157.5t-101 -146q-24 -34 -49 -66t-50 -63q22 2 43.5 5t44.5 6zM2068 1671q0 -18 -7.5 -34t-20.5 -28t-31.5 -19t-40.5 -7q-20 0 -35 6t-26.5 16
t-19.5 21t-15 22q-9 14 -17.5 24t-20.5 10q-9 0 -14.5 -3.5t-7.5 -7.5t-2.5 -8.5t-0.5 -5.5q0 -10 2.5 -17.5t6.5 -15.5q2 -4 3 -8t1 -9q0 -13 -10 -22.5t-26 -9.5q-8 0 -17 3.5t-16 12.5t-11.5 25t-4.5 41q0 16 6.5 32.5t18.5 29t30 20.5t42 8q21 0 36 -6.5t27 -16
t20.5 -21.5t15.5 -22q10 -14 18.5 -24t20.5 -10q16 0 20 8.5t4 13.5q0 12 -4 22.5t-8 19.5q-7 12 -7 20q0 12 10 22t26 10q19 0 37 -23t18 -69z" />
    <glyph glyph-name="atilde" unicode="&#xe3;" horiz-adv-x="704" 
d="M811 279q-4 -8 -16.5 -33.5t-32 -58.5t-45.5 -69t-58 -66t-69 -49.5t-78 -19.5q-58 0 -97.5 37t-57.5 93q-34 -57 -81 -90.5t-94 -33.5q-37 0 -67 13.5t-51 38t-32.5 57.5t-11.5 72q0 78 26.5 137.5t67.5 99.5t90.5 60t95.5 20q31 0 57 -8.5t44.5 -18.5t28.5 -18.5
t11 -9.5q11 -13 11 -27q0 -15 -11 -26.5t-26 -11.5q-16 0 -27 11q-2 2 -9 7.5t-19 11.5t-28.5 10.5t-37.5 4.5q-31 0 -66 -14t-64 -43.5t-48.5 -74t-19.5 -105.5q0 -19 4 -38.5t14 -35.5t27 -26t42 -10q18 0 41.5 12t45 37t39 63t24.5 90q2 14 13 23.5t26 9.5q14 0 24.5 -11
t11.5 -25q1 -19 4 -53.5t13.5 -68.5t31.5 -59t58 -25q24 0 47.5 13t46 34.5t43 49t37.5 55.5t30 54t22 45q5 11 14.5 17t20.5 6q17 0 27.5 -12.5t10.5 -26.5q0 -7 -3 -14zM445 686q0 -18 -7.5 -34t-20.5 -28t-31.5 -19t-40.5 -7q-20 0 -35 6t-26.5 16t-19.5 21t-15 22
q-9 14 -17.5 24t-20.5 10q-9 0 -14.5 -3.5t-7.5 -7.5t-2.5 -8.5t-0.5 -5.5q0 -10 2.5 -17.5t6.5 -15.5q2 -4 3 -8t1 -9q0 -13 -10 -22.5t-26 -9.5q-8 0 -17 3.5t-16 12.5t-11.5 25t-4.5 41q0 16 6.5 32.5t18.5 29t30 20.5t42 8q21 0 36 -6.5t27 -16t20.5 -21.5t15.5 -22
q10 -14 18.5 -24t20.5 -10q16 0 20 8.5t4 13.5q0 12 -4 22.5t-8 19.5q-7 12 -7 20q0 12 10 22t26 10q19 0 37 -23t18 -69z" />
    <glyph glyph-name="Adieresis" unicode="&#xc4;" horiz-adv-x="2165" 
d="M1956 5q4 -7 4 -17q0 -15 -10.5 -26t-27.5 -11q-11 0 -19.5 5t-13.5 15q-19 37 -33.5 92.5t-25 123.5t-17 146.5t-10.5 162.5q-75 -10 -168.5 -22t-213.5 -28q-84 -12 -171 -21q-214 -233 -450.5 -353.5t-474.5 -120.5q-106 0 -183.5 20.5t-128 46t-76 47.5t-27.5 24
q-10 10 -10 26t11 27t26 11q17 0 28 -12q2 -2 24 -20.5t65.5 -39.5t110.5 -38t159 -17q126 0 241 34t217.5 88.5t191 124.5t160.5 142q-71 -6 -141 -9t-138 -3q-134 0 -255 15t-213 50.5t-146.5 94.5t-54.5 147q0 40 16.5 80t39.5 72.5t48 53t43 20.5q14 0 26 -10t12 -27
q0 -9 -4 -17.5t-12 -13.5q-2 -2 -17 -14t-32 -32.5t-31 -49t-14 -61.5q0 -57 39.5 -100.5t115 -73t185.5 -44.5t251 -15q81 0 171 5t190 15q48 53 85 100t63 84q43 61 90 130t93.5 140t91 140.5t83.5 131t70 112t51 83.5q6 27 18 49.5t39 22.5q15 0 29 -12.5t14 -31.5
q0 -14 -10 -30t-19 -27q-3 -19 -9.5 -81t-13 -151.5t-11 -197t-4.5 -217.5v-81t2 -81q150 19 219 26.5t73 7.5q13 0 25.5 -10.5t12.5 -27.5q0 -14 -9.5 -24.5t-24.5 -12.5q-18 -2 -42 -5t-59 -7t-82 -9.5t-110 -13.5q3 -82 9.5 -157.5t16 -140.5t22.5 -117t30 -85zM1411 521
q118 16 214.5 28.5t174.5 22.5q-1 43 -1.5 86t-0.5 87q0 141 5 269.5t14 223.5q-40 -63 -88.5 -139.5t-100.5 -156t-105 -157.5t-101 -146q-24 -34 -49 -66t-50 -63q22 2 43.5 5t44.5 6zM2050 1659q0 -21 -15 -36t-38 -15q-21 0 -36 15t-15 36q0 22 15 37t36 15q23 0 38 -15
t15 -37zM1864 1659q0 -21 -15 -36t-37 -15q-21 0 -36 15t-15 36q0 22 15 37t36 15q22 0 37 -15t15 -37z" />
    <glyph glyph-name="adieresis" unicode="&#xe4;" horiz-adv-x="704" 
d="M811 279q-4 -8 -16.5 -33.5t-32 -58.5t-45.5 -69t-58 -66t-69 -49.5t-78 -19.5q-58 0 -97.5 37t-57.5 93q-34 -57 -81 -90.5t-94 -33.5q-37 0 -67 13.5t-51 38t-32.5 57.5t-11.5 72q0 78 26.5 137.5t67.5 99.5t90.5 60t95.5 20q31 0 57 -8.5t44.5 -18.5t28.5 -18.5
t11 -9.5q11 -13 11 -27q0 -15 -11 -26.5t-26 -11.5q-16 0 -27 11q-2 2 -9 7.5t-19 11.5t-28.5 10.5t-37.5 4.5q-31 0 -66 -14t-64 -43.5t-48.5 -74t-19.5 -105.5q0 -19 4 -38.5t14 -35.5t27 -26t42 -10q18 0 41.5 12t45 37t39 63t24.5 90q2 14 13 23.5t26 9.5q14 0 24.5 -11
t11.5 -25q1 -19 4 -53.5t13.5 -68.5t31.5 -59t58 -25q24 0 47.5 13t46 34.5t43 49t37.5 55.5t30 54t22 45q5 11 14.5 17t20.5 6q17 0 27.5 -12.5t10.5 -26.5q0 -7 -3 -14zM427 674q0 -21 -15 -36t-38 -15q-21 0 -36 15t-15 36q0 22 15 37t36 15q23 0 38 -15t15 -37zM241 674
q0 -21 -15 -36t-37 -15q-21 0 -36 15t-15 36q0 22 15 37t36 15q22 0 37 -15t15 -37z" />
    <glyph glyph-name="Aring" unicode="&#xc5;" horiz-adv-x="2165" 
d="M1956 5q4 -7 4 -17q0 -15 -10.5 -26t-27.5 -11q-11 0 -19.5 5t-13.5 15q-19 37 -33.5 92.5t-25 123.5t-17 146.5t-10.5 162.5q-75 -10 -168.5 -22t-213.5 -28q-84 -12 -171 -21q-214 -233 -450.5 -353.5t-474.5 -120.5q-106 0 -183.5 20.5t-128 46t-76 47.5t-27.5 24
q-10 10 -10 26t11 27t26 11q17 0 28 -12q2 -2 24 -20.5t65.5 -39.5t110.5 -38t159 -17q126 0 241 34t217.5 88.5t191 124.5t160.5 142q-71 -6 -141 -9t-138 -3q-134 0 -255 15t-213 50.5t-146.5 94.5t-54.5 147q0 40 16.5 80t39.5 72.5t48 53t43 20.5q14 0 26 -10t12 -27
q0 -9 -4 -17.5t-12 -13.5q-2 -2 -17 -14t-32 -32.5t-31 -49t-14 -61.5q0 -57 39.5 -100.5t115 -73t185.5 -44.5t251 -15q81 0 171 5t190 15q48 53 85 100t63 84q43 61 90 130t93.5 140t91 140.5t83.5 131t70 112t51 83.5q6 27 18 49.5t39 22.5q15 0 29 -12.5t14 -31.5
q0 -14 -10 -30t-19 -27q-3 -19 -9.5 -81t-13 -151.5t-11 -197t-4.5 -217.5v-81t2 -81q150 19 219 26.5t73 7.5q13 0 25.5 -10.5t12.5 -27.5q0 -14 -9.5 -24.5t-24.5 -12.5q-18 -2 -42 -5t-59 -7t-82 -9.5t-110 -13.5q3 -82 9.5 -157.5t16 -140.5t22.5 -117t30 -85zM1411 521
q118 16 214.5 28.5t174.5 22.5q-1 43 -1.5 86t-0.5 87q0 141 5 269.5t14 223.5q-40 -63 -88.5 -139.5t-100.5 -156t-105 -157.5t-101 -146q-24 -34 -49 -66t-50 -63q22 2 43.5 5t44.5 6zM2049 1702q0 -29 -11.5 -55t-31 -45.5t-46 -31t-56.5 -11.5q-29 0 -55 11.5t-45.5 31
t-31 45.5t-11.5 55t11.5 55t31 45.5t45.5 31t55 11.5q30 0 56.5 -11.5t46 -31t31 -45.5t11.5 -55zM1983 1702q0 33 -23 55t-56 22q-32 0 -54.5 -22t-22.5 -55q0 -32 22.5 -54.5t54.5 -22.5q33 0 56 22.5t23 54.5z" />
    <glyph glyph-name="aring" unicode="&#xe5;" horiz-adv-x="704" 
d="M811 279q-4 -8 -16.5 -33.5t-32 -58.5t-45.5 -69t-58 -66t-69 -49.5t-78 -19.5q-58 0 -97.5 37t-57.5 93q-34 -57 -81 -90.5t-94 -33.5q-37 0 -67 13.5t-51 38t-32.5 57.5t-11.5 72q0 78 26.5 137.5t67.5 99.5t90.5 60t95.5 20q31 0 57 -8.5t44.5 -18.5t28.5 -18.5
t11 -9.5q11 -13 11 -27q0 -15 -11 -26.5t-26 -11.5q-16 0 -27 11q-2 2 -9 7.5t-19 11.5t-28.5 10.5t-37.5 4.5q-31 0 -66 -14t-64 -43.5t-48.5 -74t-19.5 -105.5q0 -19 4 -38.5t14 -35.5t27 -26t42 -10q18 0 41.5 12t45 37t39 63t24.5 90q2 14 13 23.5t26 9.5q14 0 24.5 -11
t11.5 -25q1 -19 4 -53.5t13.5 -68.5t31.5 -59t58 -25q24 0 47.5 13t46 34.5t43 49t37.5 55.5t30 54t22 45q5 11 14.5 17t20.5 6q17 0 27.5 -12.5t10.5 -26.5q0 -7 -3 -14zM426 717q0 -29 -11.5 -55t-31 -45.5t-46 -31t-56.5 -11.5q-29 0 -55 11.5t-45.5 31t-31 45.5
t-11.5 55t11.5 55t31 45.5t45.5 31t55 11.5q30 0 56.5 -11.5t46 -31t31 -45.5t11.5 -55zM360 717q0 33 -23 55t-56 22q-32 0 -54.5 -22t-22.5 -55q0 -32 22.5 -54.5t54.5 -22.5q33 0 56 22.5t23 54.5z" />
    <glyph glyph-name="AE" unicode="&#xc6;" horiz-adv-x="3448" 
d="M1956 5q4 -7 4 -17q0 -15 -10.5 -26t-27.5 -11q-11 0 -19.5 5t-13.5 15q-19 37 -33.5 92.5t-25 123.5t-17 146.5t-10.5 161.5q-75 -9 -168.5 -21t-213.5 -28q-84 -12 -171 -21q-214 -233 -450.5 -353.5t-474.5 -120.5q-106 0 -183.5 20.5t-128 46t-76 47.5t-27.5 24
q-10 10 -10 26t11 27t26 11q17 0 28 -12q2 -2 24 -20.5t65.5 -39.5t110.5 -38t159 -17q126 0 241 34t217.5 88.5t191 124.5t160.5 142q-71 -6 -141 -9t-138 -3q-134 0 -255 15t-213 50.5t-146.5 94.5t-54.5 147q0 40 16.5 80t39.5 72.5t48 53t43 20.5q14 0 26 -10t12 -27
q0 -9 -4 -17.5t-12 -13.5q-2 -2 -17 -14t-32 -32.5t-31 -49t-14 -61.5q0 -57 39.5 -100.5t115 -73t185.5 -44.5t251 -15q81 0 171 5t190 15q48 53 85 100t63 84q43 61 90 130t93.5 140t91 140.5t83.5 131t70 112t51 83.5q6 27 18 49.5t39 22.5q15 0 29 -12.5t14 -31.5
q0 -14 -10 -30t-19 -27q-3 -19 -9.5 -81t-13 -151.5t-11 -197t-4.5 -217.5v-100q81 125 260 191q-57 53 -85 117t-28 133q0 86 39.5 159t109.5 126t166.5 82.5t211.5 29.5q116 0 202.5 -22t148 -55t101 -72t62.5 -73t32 -57.5t10 -26.5q1 -4 1 -11q0 -14 -10.5 -25.5
t-27.5 -11.5q-12 0 -21.5 7.5t-13.5 20.5q0 2 -8 21.5t-28 47.5t-54.5 59.5t-88.5 59t-129 45.5t-176 18q-116 0 -201.5 -29t-141 -75.5t-82.5 -103.5t-27 -112q0 -65 32 -124t92 -101q54 14 106 22t98 12.5t83.5 6t61.5 1.5q44 0 81 -6.5t63.5 -19t41.5 -32t15 -44.5
t-15 -45t-41.5 -34t-63.5 -21.5t-81 -7.5q-48 0 -97 6t-95.5 17t-89.5 27.5t-78 37.5q-159 -48 -241 -138.5t-82 -223.5q0 -72 25.5 -129.5t70.5 -101.5t105.5 -75.5t129.5 -51.5t144 -29.5t149 -9.5q48 0 93 3.5t87 10.5q126 20 221.5 58.5t165 84t115.5 93t73.5 87
t39 64.5t11.5 26q4 12 13.5 18.5t21.5 6.5q16 0 27 -11t11 -26q0 -4 -2 -12q-1 -4 -14 -34t-43.5 -74t-80.5 -97t-126 -103.5t-180 -92t-241 -63.5q-92 -15 -193 -15q-85 0 -170 12t-163 37t-145.5 63.5t-116.5 91.5q8 -46 18.5 -82.5t24.5 -62.5zM1411 521
q118 16 214.5 28.5t174.5 22.5q-1 44 -1.5 86.5t-0.5 86.5q0 141 5 269.5t14 223.5q-40 -63 -88.5 -139.5t-100.5 -156t-105 -157.5t-101 -146q-24 -34 -49 -66t-50 -63q22 2 43.5 5t44.5 6zM2693 800q0 8 -13 14t-33.5 9.5t-46.5 5t-53 1.5q-59 0 -112 -3.5t-121 -16.5
q52 -19 119.5 -30.5t136.5 -11.5q63 0 93 10t30 22z" />
    <glyph glyph-name="ae" unicode="&#xe6;" horiz-adv-x="827" 
d="M472 110q21 -29 54 -46.5t81 -17.5q44 0 81.5 24.5t69.5 62.5t58.5 85t48.5 92q5 11 14 16.5t20 5.5q17 0 27.5 -12t10.5 -26q0 -5 -1 -8.5t-3 -7.5q-147 -305 -335 -308q-49 0 -87 14t-66.5 38.5t-47.5 57t-29 69.5q-15 -32 -33.5 -61t-42 -51t-51 -35t-59.5 -13
q-37 0 -67 13.5t-51 38t-32.5 57.5t-11.5 72q0 78 26.5 137.5t67.5 99.5t90.5 60t95.5 20q40 0 70 -12.5t48 -24.5q20 20 45.5 31t56.5 11q23 0 45.5 -9.5t40.5 -27t29 -42.5t11 -57q0 -41 -14 -77t-38.5 -67t-58.5 -57t-73 -45h10zM365 387q0 2 0.5 3.5t0.5 3.5
q-12 7 -30 12.5t-42 5.5q-31 0 -66 -14t-64 -43.5t-48.5 -74t-19.5 -105.5q0 -19 4 -38.5t14 -35.5t27 -26t42 -10q39 0 70 31t53.5 78.5t37 104t21.5 108.5zM432 175q31 13 56.5 33t43.5 44t28 50.5t10 53.5q0 30 -15 45.5t-35 15.5q-27 0 -46 -15t-31 -39t-17.5 -53.5
t-5.5 -58.5q0 -18 3.5 -38t8.5 -38z" />
    <glyph glyph-name="AEacute" unicode="&#x1fc;" horiz-adv-x="3448" 
d="M1956 5q4 -7 4 -17q0 -15 -10.5 -26t-27.5 -11q-11 0 -19.5 5t-13.5 15q-19 37 -33.5 92.5t-25 123.5t-17 146.5t-10.5 161.5q-75 -9 -168.5 -21t-213.5 -28q-84 -12 -171 -21q-214 -233 -450.5 -353.5t-474.5 -120.5q-106 0 -183.5 20.5t-128 46t-76 47.5t-27.5 24
q-10 10 -10 26t11 27t26 11q17 0 28 -12q2 -2 24 -20.5t65.5 -39.5t110.5 -38t159 -17q126 0 241 34t217.5 88.5t191 124.5t160.5 142q-71 -6 -141 -9t-138 -3q-134 0 -255 15t-213 50.5t-146.5 94.5t-54.5 147q0 40 16.5 80t39.5 72.5t48 53t43 20.5q14 0 26 -10t12 -27
q0 -9 -4 -17.5t-12 -13.5q-2 -2 -17 -14t-32 -32.5t-31 -49t-14 -61.5q0 -57 39.5 -100.5t115 -73t185.5 -44.5t251 -15q81 0 171 5t190 15q48 53 85 100t63 84q43 61 90 130t93.5 140t91 140.5t83.5 131t70 112t51 83.5q6 27 18 49.5t39 22.5q15 0 29 -12.5t14 -31.5
q0 -14 -10 -30t-19 -27q-3 -19 -9.5 -81t-13 -151.5t-11 -197t-4.5 -217.5v-100q81 125 260 191q-57 53 -85 117t-28 133q0 86 39.5 159t109.5 126t166.5 82.5t211.5 29.5q116 0 202.5 -22t148 -55t101 -72t62.5 -73t32 -57.5t10 -26.5q1 -4 1 -11q0 -14 -10.5 -25.5
t-27.5 -11.5q-12 0 -21.5 7.5t-13.5 20.5q0 2 -8 21.5t-28 47.5t-54.5 59.5t-88.5 59t-129 45.5t-176 18q-116 0 -201.5 -29t-141 -75.5t-82.5 -103.5t-27 -112q0 -65 32 -124t92 -101q54 14 106 22t98 12.5t83.5 6t61.5 1.5q44 0 81 -6.5t63.5 -19t41.5 -32t15 -44.5
t-15 -45t-41.5 -34t-63.5 -21.5t-81 -7.5q-48 0 -97 6t-95.5 17t-89.5 27.5t-78 37.5q-159 -48 -241 -138.5t-82 -223.5q0 -72 25.5 -129.5t70.5 -101.5t105.5 -75.5t129.5 -51.5t144 -29.5t149 -9.5q48 0 93 3.5t87 10.5q126 20 221.5 58.5t165 84t115.5 93t73.5 87
t39 64.5t11.5 26q4 12 13.5 18.5t21.5 6.5q16 0 27 -11t11 -26q0 -4 -2 -12q-1 -4 -14 -34t-43.5 -74t-80.5 -97t-126 -103.5t-180 -92t-241 -63.5q-92 -15 -193 -15q-85 0 -170 12t-163 37t-145.5 63.5t-116.5 91.5q8 -46 18.5 -82.5t24.5 -62.5zM1411 521
q118 16 214.5 28.5t174.5 22.5q-1 44 -1.5 86.5t-0.5 86.5q0 141 5 269.5t14 223.5q-40 -63 -88.5 -139.5t-100.5 -156t-105 -157.5t-101 -146q-24 -34 -49 -66t-50 -63q22 2 43.5 5t44.5 6zM2693 800q0 8 -13 14t-33.5 9.5t-46.5 5t-53 1.5q-59 0 -112 -3.5t-121 -16.5
q52 -19 119.5 -30.5t136.5 -11.5q63 0 93 10t30 22zM2115 1625l160 152q10 9 23 9t23 -10t10 -24t-10 -23l-160 -152q-11 -9 -23 -9q-14 0 -23.5 10t-9.5 23q0 14 10 24z" />
    <glyph glyph-name="aeacute" unicode="&#x1fd;" horiz-adv-x="827" 
d="M472 110q21 -29 54 -46.5t81 -17.5q44 0 81.5 24.5t69.5 62.5t58.5 85t48.5 92q5 11 14 16.5t20 5.5q17 0 27.5 -12t10.5 -26q0 -5 -1 -8.5t-3 -7.5q-147 -305 -335 -308q-49 0 -87 14t-66.5 38.5t-47.5 57t-29 69.5q-15 -32 -33.5 -61t-42 -51t-51 -35t-59.5 -13
q-37 0 -67 13.5t-51 38t-32.5 57.5t-11.5 72q0 78 26.5 137.5t67.5 99.5t90.5 60t95.5 20q40 0 70 -12.5t48 -24.5q20 20 45.5 31t56.5 11q23 0 45.5 -9.5t40.5 -27t29 -42.5t11 -57q0 -41 -14 -77t-38.5 -67t-58.5 -57t-73 -45h10zM365 387q0 2 0.5 3.5t0.5 3.5
q-12 7 -30 12.5t-42 5.5q-31 0 -66 -14t-64 -43.5t-48.5 -74t-19.5 -105.5q0 -19 4 -38.5t14 -35.5t27 -26t42 -10q39 0 70 31t53.5 78.5t37 104t21.5 108.5zM432 175q31 13 56.5 33t43.5 44t28 50.5t10 53.5q0 30 -15 45.5t-35 15.5q-27 0 -46 -15t-31 -39t-17.5 -53.5
t-5.5 -58.5q0 -18 3.5 -38t8.5 -38zM360 646l160 152q10 9 23 9t23 -10t10 -24t-10 -23l-160 -152q-11 -9 -23 -9q-14 0 -23.5 10t-9.5 23q0 14 10 24z" />
    <glyph glyph-name="Amacron" unicode="&#x100;" horiz-adv-x="2165" 
d="M1956 5q4 -7 4 -17q0 -15 -10.5 -26t-27.5 -11q-11 0 -19.5 5t-13.5 15q-19 37 -33.5 92.5t-25 123.5t-17 146.5t-10.5 162.5q-75 -10 -168.5 -22t-213.5 -28q-84 -12 -171 -21q-214 -233 -450.5 -353.5t-474.5 -120.5q-106 0 -183.5 20.5t-128 46t-76 47.5t-27.5 24
q-10 10 -10 26t11 27t26 11q17 0 28 -12q2 -2 24 -20.5t65.5 -39.5t110.5 -38t159 -17q126 0 241 34t217.5 88.5t191 124.5t160.5 142q-71 -6 -141 -9t-138 -3q-134 0 -255 15t-213 50.5t-146.5 94.5t-54.5 147q0 40 16.5 80t39.5 72.5t48 53t43 20.5q14 0 26 -10t12 -27
q0 -9 -4 -17.5t-12 -13.5q-2 -2 -17 -14t-32 -32.5t-31 -49t-14 -61.5q0 -57 39.5 -100.5t115 -73t185.5 -44.5t251 -15q81 0 171 5t190 15q48 53 85 100t63 84q43 61 90 130t93.5 140t91 140.5t83.5 131t70 112t51 83.5q6 27 18 49.5t39 22.5q15 0 29 -12.5t14 -31.5
q0 -14 -10 -30t-19 -27q-3 -19 -9.5 -81t-13 -151.5t-11 -197t-4.5 -217.5v-81t2 -81q150 19 219 26.5t73 7.5q13 0 25.5 -10.5t12.5 -27.5q0 -14 -9.5 -24.5t-24.5 -12.5q-18 -2 -42 -5t-59 -7t-82 -9.5t-110 -13.5q3 -82 9.5 -157.5t16 -140.5t22.5 -117t30 -85zM1411 521
q118 16 214.5 28.5t174.5 22.5q-1 43 -1.5 86t-0.5 87q0 141 5 269.5t14 223.5q-40 -63 -88.5 -139.5t-100.5 -156t-105 -157.5t-101 -146q-24 -34 -49 -66t-50 -63q22 2 43.5 5t44.5 6zM2064 1667q0 -14 -9 -23.5t-23 -10.5l-252 -10q-13 -1 -24 8.5t-11 23.5t9 23.5
t23 10.5l253 10q14 1 24 -9t10 -23z" />
    <glyph glyph-name="amacron" unicode="&#x101;" horiz-adv-x="704" 
d="M811 279q-4 -8 -16.5 -33.5t-32 -58.5t-45.5 -69t-58 -66t-69 -49.5t-78 -19.5q-58 0 -97.5 37t-57.5 93q-34 -57 -81 -90.5t-94 -33.5q-37 0 -67 13.5t-51 38t-32.5 57.5t-11.5 72q0 78 26.5 137.5t67.5 99.5t90.5 60t95.5 20q31 0 57 -8.5t44.5 -18.5t28.5 -18.5
t11 -9.5q11 -13 11 -27q0 -15 -11 -26.5t-26 -11.5q-16 0 -27 11q-2 2 -9 7.5t-19 11.5t-28.5 10.5t-37.5 4.5q-31 0 -66 -14t-64 -43.5t-48.5 -74t-19.5 -105.5q0 -19 4 -38.5t14 -35.5t27 -26t42 -10q18 0 41.5 12t45 37t39 63t24.5 90q2 14 13 23.5t26 9.5q14 0 24.5 -11
t11.5 -25q1 -19 4 -53.5t13.5 -68.5t31.5 -59t58 -25q24 0 47.5 13t46 34.5t43 49t37.5 55.5t30 54t22 45q5 11 14.5 17t20.5 6q17 0 27.5 -12.5t10.5 -26.5q0 -7 -3 -14zM441 682q0 -14 -9 -23.5t-23 -10.5l-252 -10q-13 -1 -24 8.5t-11 23.5t9 23.5t23 10.5l253 10
q14 1 24 -9t10 -23z" />
    <glyph glyph-name="Abreve" unicode="&#x102;" horiz-adv-x="2165" 
d="M1956 5q4 -7 4 -17q0 -15 -10.5 -26t-27.5 -11q-11 0 -19.5 5t-13.5 15q-19 37 -33.5 92.5t-25 123.5t-17 146.5t-10.5 162.5q-75 -10 -168.5 -22t-213.5 -28q-84 -12 -171 -21q-214 -233 -450.5 -353.5t-474.5 -120.5q-106 0 -183.5 20.5t-128 46t-76 47.5t-27.5 24
q-10 10 -10 26t11 27t26 11q17 0 28 -12q2 -2 24 -20.5t65.5 -39.5t110.5 -38t159 -17q126 0 241 34t217.5 88.5t191 124.5t160.5 142q-71 -6 -141 -9t-138 -3q-134 0 -255 15t-213 50.5t-146.5 94.5t-54.5 147q0 40 16.5 80t39.5 72.5t48 53t43 20.5q14 0 26 -10t12 -27
q0 -9 -4 -17.5t-12 -13.5q-2 -2 -17 -14t-32 -32.5t-31 -49t-14 -61.5q0 -57 39.5 -100.5t115 -73t185.5 -44.5t251 -15q81 0 171 5t190 15q48 53 85 100t63 84q43 61 90 130t93.5 140t91 140.5t83.5 131t70 112t51 83.5q6 27 18 49.5t39 22.5q15 0 29 -12.5t14 -31.5
q0 -14 -10 -30t-19 -27q-3 -19 -9.5 -81t-13 -151.5t-11 -197t-4.5 -217.5v-81t2 -81q150 19 219 26.5t73 7.5q13 0 25.5 -10.5t12.5 -27.5q0 -14 -9.5 -24.5t-24.5 -12.5q-18 -2 -42 -5t-59 -7t-82 -9.5t-110 -13.5q3 -82 9.5 -157.5t16 -140.5t22.5 -117t30 -85zM1411 521
q118 16 214.5 28.5t174.5 22.5q-1 43 -1.5 86t-0.5 87q0 141 5 269.5t14 223.5q-40 -63 -88.5 -139.5t-100.5 -156t-105 -157.5t-101 -146q-24 -34 -49 -66t-50 -63q22 2 43.5 5t44.5 6zM2046 1729q0 -29 -9.5 -56t-27.5 -48t-44.5 -33.5t-60.5 -12.5q-37 0 -64 15t-45 38
t-26.5 49t-8.5 49q0 14 10 24t24 10q13 0 24 -10t11 -24t4.5 -29t14 -27.5t23.5 -21t33 -8.5q29 0 51 19t22 63q0 14 10 25t26 11q14 0 23.5 -10t9.5 -23z" />
    <glyph glyph-name="abreve" unicode="&#x103;" horiz-adv-x="704" 
d="M811 279q-4 -8 -16.5 -33.5t-32 -58.5t-45.5 -69t-58 -66t-69 -49.5t-78 -19.5q-58 0 -97.5 37t-57.5 93q-34 -57 -81 -90.5t-94 -33.5q-37 0 -67 13.5t-51 38t-32.5 57.5t-11.5 72q0 78 26.5 137.5t67.5 99.5t90.5 60t95.5 20q31 0 57 -8.5t44.5 -18.5t28.5 -18.5
t11 -9.5q11 -13 11 -27q0 -15 -11 -26.5t-26 -11.5q-16 0 -27 11q-2 2 -9 7.5t-19 11.5t-28.5 10.5t-37.5 4.5q-31 0 -66 -14t-64 -43.5t-48.5 -74t-19.5 -105.5q0 -19 4 -38.5t14 -35.5t27 -26t42 -10q18 0 41.5 12t45 37t39 63t24.5 90q2 14 13 23.5t26 9.5q14 0 24.5 -11
t11.5 -25q1 -19 4 -53.5t13.5 -68.5t31.5 -59t58 -25q24 0 47.5 13t46 34.5t43 49t37.5 55.5t30 54t22 45q5 11 14.5 17t20.5 6q17 0 27.5 -12.5t10.5 -26.5q0 -7 -3 -14zM423 744q0 -29 -9.5 -56t-27.5 -48t-44.5 -33.5t-60.5 -12.5q-37 0 -64 15t-45 38t-26.5 49t-8.5 49
q0 14 10 24t24 10q13 0 24 -10t11 -24t4.5 -29t14 -27.5t23.5 -21t33 -8.5q29 0 51 19t22 63q0 14 10 25t26 11q14 0 23.5 -10t9.5 -23z" />
    <glyph glyph-name="Aogonek" unicode="&#x104;" horiz-adv-x="2165" 
d="M2023 -222q0 -16 -9 -33t-24.5 -31.5t-37.5 -24t-48 -9.5q-30 0 -52 10t-36 25.5t-21 35.5t-7 40q0 30 9.5 59.5t24 55.5t30.5 47.5t28 36.5q-17 39 -30 93.5t-22 120t-15.5 139.5t-9.5 153q-75 -10 -168.5 -22t-213.5 -28q-84 -12 -171 -21q-214 -233 -450.5 -353.5
t-474.5 -120.5q-106 0 -183.5 20.5t-128 46t-76 47.5t-27.5 24q-10 10 -10 26t11 27t26 11q17 0 28 -12q2 -2 24 -20.5t65.5 -39.5t110.5 -38t159 -17q126 0 241 34t217.5 88.5t191 124.5t160.5 142q-71 -6 -141 -9t-138 -3q-134 0 -255 15t-213 50.5t-146.5 94.5t-54.5 147
q0 40 16.5 80t39.5 72.5t48 53t43 20.5q14 0 26 -10t12 -27q0 -9 -4 -17.5t-12 -13.5q-2 -2 -17 -14t-32 -32.5t-31 -49t-14 -61.5q0 -57 39.5 -100.5t115 -73t185.5 -44.5t251 -15q81 0 171 5t190 15q48 53 85 100t63 84q43 61 90 130t93.5 140t91 140.5t83.5 131t70 112
t51 83.5q6 27 18 49.5t39 22.5q15 0 29 -12.5t14 -31.5q0 -14 -10 -30t-19 -27q-3 -19 -9.5 -81t-13 -151.5t-11 -197t-4.5 -217.5v-81t2 -81q150 19 219 26.5t73 7.5q13 0 25.5 -10.5t12.5 -27.5q0 -14 -9.5 -24.5t-24.5 -12.5q-18 -2 -42 -5t-59 -7t-82 -9.5t-110 -13.5
q3 -82 9.5 -157.5t16 -140.5t22.5 -117t30 -85q2 -3 3 -7t1 -10q0 -11 -4.5 -17.5t-9.5 -11.5l-14 -17t-30.5 -42t-30.5 -54.5t-14 -54.5q0 -23 12.5 -34t32.5 -11q25 0 38 15.5t20 28.5q11 20 32 20q14 0 22.5 -9.5t8.5 -22.5zM1411 521q118 16 214.5 28.5t174.5 22.5
q-1 43 -1.5 86t-0.5 87q0 141 5 269.5t14 223.5q-40 -63 -88.5 -139.5t-100.5 -156t-105 -157.5t-101 -146q-24 -34 -49 -66t-50 -63q22 2 43.5 5t44.5 6z" />
    <glyph glyph-name="aogonek" unicode="&#x105;" horiz-adv-x="704" 
d="M574 -195q0 -16 -9 -33t-24.5 -31.5t-37.5 -24t-48 -9.5q-30 0 -52 10t-36 25.5t-21 35.5t-7 40q0 28 9 56.5t22 53.5t28.5 46.5t27.5 36.5q-49 35 -69 102q-34 -57 -81 -90.5t-94 -33.5q-37 0 -67 13.5t-51 38t-32.5 57.5t-11.5 72q0 78 26.5 137.5t67.5 99.5t90.5 60
t95.5 20q31 0 57 -8.5t44.5 -18.5t28.5 -18.5t11 -9.5q11 -13 11 -27q0 -15 -11 -26.5t-26 -11.5q-16 0 -27 11q-2 2 -9 7.5t-19 11.5t-28.5 10.5t-37.5 4.5q-31 0 -66 -14t-64 -43.5t-48.5 -74t-19.5 -105.5q0 -19 4 -38.5t14 -35.5t27 -26t42 -10q18 0 41.5 12t45 37
t39 63t24.5 90q2 14 13 23.5t26 9.5q14 0 24.5 -11t11.5 -25q1 -19 4 -53.5t13.5 -68.5t31.5 -59t58 -25q24 0 47.5 13t46 34.5t43 49t37.5 55.5t30 54t22 45q5 11 14.5 17t20.5 6q17 0 27.5 -12.5t10.5 -26.5q0 -7 -3 -14q-4 -8 -16.5 -33.5t-32 -58.5t-45.5 -69t-58 -66
t-69 -49.5t-78 -19.5q-5 0 -9 0.5t-8 0.5q-3 -4 -17 -21t-29.5 -41t-28 -52t-12.5 -52q0 -23 12.5 -34t32.5 -11q25 0 38 15.5t20 28.5q11 20 32 20q14 0 22.5 -9.5t8.5 -22.5z" />
    <glyph glyph-name="Ccedilla" unicode="&#xc7;" horiz-adv-x="1739" 
d="M1004 -240q0 -24 -9 -46.5t-27 -40.5t-44.5 -29t-60.5 -11q-20 0 -43 4.5t-42 13.5t-31.5 21.5t-12.5 28.5q0 15 10.5 23.5t23.5 8.5q8 0 16 -5.5t18.5 -12t25 -12t34.5 -5.5q30 0 52 15.5t22 47.5q0 18 -6.5 30t-16 19.5t-21.5 10.5t-22 3q-17 0 -28 -3t-18 -3
q-13 0 -21.5 7.5t-8.5 21.5q0 8 2 14.5t4 12.5l31 82q-96 5 -190.5 26.5t-180.5 60t-159 95.5t-126.5 132t-84 169t-30.5 208q0 117 34.5 222t96.5 194.5t147 161.5t186 122.5t213 77.5t229 27q129 0 242.5 -30.5t198.5 -86t134.5 -133t49.5 -172.5q0 -88 -41 -167.5
t-112.5 -139.5t-167 -95t-203.5 -35q-87 0 -154 21.5t-112 59.5t-68 89t-23 110q0 49 15.5 89.5t34 69.5t35 45.5l18.5 18.5q5 5 11.5 6.5t12.5 1.5q16 0 27 -10t11 -26q0 -18 -13 -30q-2 -1 -14 -13.5t-26 -34t-25.5 -51.5t-11.5 -66q0 -57 25.5 -96t66.5 -63.5t91 -35
t100 -10.5q93 0 174.5 30t142.5 80t96 115t35 136q0 78 -44 142.5t-119 110t-175.5 70.5t-214.5 25q-86 0 -180.5 -20.5t-186.5 -61.5t-175.5 -102t-146.5 -142.5t-100.5 -182.5t-37.5 -221q0 -109 30.5 -197t84.5 -156.5t126.5 -118.5t156 -82.5t174.5 -48t181 -15.5
q120 0 231 33.5t205.5 88t167.5 122.5t116 137q5 9 14 13.5t19 4.5q17 0 27 -11.5t10 -25.5q0 -5 -1 -10t-4 -10q-47 -76 -126 -150t-181 -133t-221.5 -96t-247.5 -38v-1q0 -6 -3 -15t-5 -13l-14 -39q23 0 46 -7.5t41 -23.5t29.5 -39.5t11.5 -55.5z" />
    <glyph glyph-name="ccedilla" unicode="&#xe7;" horiz-adv-x="586" 
d="M428 -230q0 -24 -9 -46.5t-27 -40.5t-44.5 -29t-60.5 -11q-20 0 -43 4.5t-42 13.5t-31.5 21.5t-12.5 28.5q0 15 10.5 23.5t23.5 8.5q8 0 16 -5.5t18.5 -12t25 -12t34.5 -5.5q30 0 52 15.5t22 47.5q0 18 -6.5 30t-16 19.5t-21.5 10.5t-22 3q-17 0 -28 -3t-18 -3
q-13 0 -21.5 7.5t-8.5 21.5q0 8 2 14.5t4 12.5l25 68q-50 5 -89 27.5t-65.5 59t-40.5 85.5t-14 106q0 60 17 112.5t46.5 91.5t68.5 61.5t83 22.5q33 0 60 -11.5t45.5 -30.5t29 -42t10.5 -46q0 -22 -5.5 -41t-14 -33.5t-19.5 -23t-22 -8.5q-17 0 -27.5 11t-10.5 27
q0 8 3.5 14t8 12.5t8 16t3.5 24.5q0 21 -19.5 38t-49.5 17q-28 0 -53.5 -17t-44.5 -45.5t-30.5 -67t-11.5 -81.5q0 -41 10 -78t30 -65.5t50.5 -45.5t72.5 -17q54 0 100 19.5t84 49.5t67 65.5t49.5 67t32 55t13.5 29.5q4 10 13.5 15.5t20.5 5.5q17 0 27.5 -12t10.5 -27
q0 -6 -4 -16q-5 -11 -18.5 -37.5t-36 -60t-53 -70.5t-70 -69.5t-88 -56t-106.5 -30.5q-2 -5 -3.5 -10.5t-2.5 -7.5l-14 -39q23 0 46 -7.5t41 -23.5t29.5 -39.5t11.5 -55.5z" />
    <glyph glyph-name="Cacute" unicode="&#x106;" horiz-adv-x="1739" 
d="M1674 371q-47 -76 -127 -150.5t-182.5 -134t-223.5 -96t-250 -36.5q-101 0 -201.5 18t-193 55t-172 93.5t-138.5 133.5t-92.5 175t-33.5 218q0 117 34.5 222t96.5 194.5t147 161.5t186 122.5t213 77.5t229 27q129 0 242.5 -30.5t198.5 -86t134.5 -133t49.5 -172.5
q0 -88 -41 -167.5t-112.5 -139.5t-167 -95t-203.5 -35q-87 0 -154 21.5t-112 59.5t-68 89t-23 110q0 49 15.5 89.5t34 69.5t35 45.5l18.5 18.5q5 5 11.5 6.5t12.5 1.5q16 0 27 -10t11 -26q0 -18 -13 -30q-2 -1 -14 -13.5t-26 -34t-25.5 -51.5t-11.5 -66q0 -57 25.5 -96
t66.5 -63.5t91 -35t100 -10.5q93 0 174.5 30t142.5 80t96 115t35 136q0 78 -44 142.5t-119 110t-175.5 70.5t-214.5 25q-86 0 -180.5 -20.5t-186.5 -61.5t-175.5 -102t-146.5 -142.5t-100.5 -182.5t-37.5 -221q0 -109 30.5 -197t84.5 -156.5t126.5 -118.5t156 -82.5
t174.5 -48t181 -15.5q120 0 231 33.5t205.5 88t167.5 122.5t116 137q5 9 14 13.5t19 4.5q17 0 27 -11.5t10 -25.5q0 -5 -1 -10t-4 -10zM919 1592l160 152q10 9 23 9t23 -10t10 -24t-10 -23l-160 -152q-11 -9 -23 -9q-14 0 -23.5 10t-9.5 23q0 14 10 24z" />
    <glyph glyph-name="cacute" unicode="&#x107;" horiz-adv-x="586" 
d="M692 277q-6 -11 -20.5 -40t-39 -65.5t-58.5 -75.5t-78 -71.5t-98.5 -53.5t-118.5 -21q-57 0 -101 20.5t-75 58t-47 88.5t-16 113q0 60 17 112.5t46.5 91.5t68.5 61.5t83 22.5q33 0 60 -11.5t45.5 -30.5t29 -42t10.5 -46q0 -22 -5.5 -41t-14 -33.5t-19.5 -23t-22 -8.5
q-17 0 -27.5 11t-10.5 27q0 8 3.5 14t8 12.5t8 16t3.5 24.5q0 21 -19.5 38t-49.5 17q-28 0 -53.5 -17t-44.5 -45.5t-30.5 -67t-11.5 -81.5q0 -41 10 -78t30 -65.5t50.5 -45.5t72.5 -17q54 0 100 19.5t84 49.5t67 65.5t49.5 67t32 55t13.5 29.5q4 10 13.5 15.5t20.5 5.5
q17 0 27.5 -12t10.5 -27q0 -6 -4 -16zM196 672l160 152q10 9 23 9t23 -10t10 -24t-10 -23l-160 -152q-11 -9 -23 -9q-14 0 -23.5 10t-9.5 23q0 14 10 24z" />
    <glyph glyph-name="Ccircumflex" unicode="&#x108;" horiz-adv-x="1739" 
d="M1674 371q-47 -76 -127 -150.5t-182.5 -134t-223.5 -96t-250 -36.5q-101 0 -201.5 18t-193 55t-172 93.5t-138.5 133.5t-92.5 175t-33.5 218q0 117 34.5 222t96.5 194.5t147 161.5t186 122.5t213 77.5t229 27q129 0 242.5 -30.5t198.5 -86t134.5 -133t49.5 -172.5
q0 -88 -41 -167.5t-112.5 -139.5t-167 -95t-203.5 -35q-87 0 -154 21.5t-112 59.5t-68 89t-23 110q0 49 15.5 89.5t34 69.5t35 45.5l18.5 18.5q5 5 11.5 6.5t12.5 1.5q16 0 27 -10t11 -26q0 -18 -13 -30q-2 -1 -14 -13.5t-26 -34t-25.5 -51.5t-11.5 -66q0 -57 25.5 -96
t66.5 -63.5t91 -35t100 -10.5q93 0 174.5 30t142.5 80t96 115t35 136q0 78 -44 142.5t-119 110t-175.5 70.5t-214.5 25q-86 0 -180.5 -20.5t-186.5 -61.5t-175.5 -102t-146.5 -142.5t-100.5 -182.5t-37.5 -221q0 -109 30.5 -197t84.5 -156.5t126.5 -118.5t156 -82.5
t174.5 -48t181 -15.5q120 0 231 33.5t205.5 88t167.5 122.5t116 137q5 9 14 13.5t19 4.5q17 0 27 -11.5t10 -25.5q0 -5 -1 -10t-4 -10zM1115 1587q6 -9 6 -19q0 -13 -9.5 -23t-23.5 -10q-17 0 -27 13l-82 116l-84 -116q-10 -13 -26 -13q-14 0 -24 10t-10 23q0 12 7 20
l112 152q10 13 27 13t26 -14z" />
    <glyph glyph-name="ccircumflex" unicode="&#x109;" horiz-adv-x="586" 
d="M692 277q-6 -11 -20.5 -40t-39 -65.5t-58.5 -75.5t-78 -71.5t-98.5 -53.5t-118.5 -21q-57 0 -101 20.5t-75 58t-47 88.5t-16 113q0 60 17 112.5t46.5 91.5t68.5 61.5t83 22.5q33 0 60 -11.5t45.5 -30.5t29 -42t10.5 -46q0 -22 -5.5 -41t-14 -33.5t-19.5 -23t-22 -8.5
q-17 0 -27.5 11t-10.5 27q0 8 3.5 14t8 12.5t8 16t3.5 24.5q0 21 -19.5 38t-49.5 17q-28 0 -53.5 -17t-44.5 -45.5t-30.5 -67t-11.5 -81.5q0 -41 10 -78t30 -65.5t50.5 -45.5t72.5 -17q54 0 100 19.5t84 49.5t67 65.5t49.5 67t32 55t13.5 29.5q4 10 13.5 15.5t20.5 5.5
q17 0 27.5 -12t10.5 -27q0 -6 -4 -16zM392 667q6 -9 6 -19q0 -13 -9.5 -23t-23.5 -10q-17 0 -27 13l-82 116l-84 -116q-10 -13 -26 -13q-14 0 -24 10t-10 23q0 12 7 20l112 152q10 13 27 13t26 -14z" />
    <glyph glyph-name="Cdotaccent" unicode="&#x10a;" horiz-adv-x="1739" 
d="M1674 371q-47 -76 -127 -150.5t-182.5 -134t-223.5 -96t-250 -36.5q-101 0 -201.5 18t-193 55t-172 93.5t-138.5 133.5t-92.5 175t-33.5 218q0 117 34.5 222t96.5 194.5t147 161.5t186 122.5t213 77.5t229 27q129 0 242.5 -30.5t198.5 -86t134.5 -133t49.5 -172.5
q0 -88 -41 -167.5t-112.5 -139.5t-167 -95t-203.5 -35q-87 0 -154 21.5t-112 59.5t-68 89t-23 110q0 49 15.5 89.5t34 69.5t35 45.5l18.5 18.5q5 5 11.5 6.5t12.5 1.5q16 0 27 -10t11 -26q0 -18 -13 -30q-2 -1 -14 -13.5t-26 -34t-25.5 -51.5t-11.5 -66q0 -57 25.5 -96
t66.5 -63.5t91 -35t100 -10.5q93 0 174.5 30t142.5 80t96 115t35 136q0 78 -44 142.5t-119 110t-175.5 70.5t-214.5 25q-86 0 -180.5 -20.5t-186.5 -61.5t-175.5 -102t-146.5 -142.5t-100.5 -182.5t-37.5 -221q0 -109 30.5 -197t84.5 -156.5t126.5 -118.5t156 -82.5
t174.5 -48t181 -15.5q120 0 231 33.5t205.5 88t167.5 122.5t116 137q5 9 14 13.5t19 4.5q17 0 27 -11.5t10 -25.5q0 -5 -1 -10t-4 -10zM1034 1625q0 -23 -16 -38.5t-39 -15.5t-38.5 15.5t-15.5 38.5t15.5 39t38.5 16t39 -16t16 -39z" />
    <glyph glyph-name="cdotaccent" unicode="&#x10b;" horiz-adv-x="586" 
d="M692 277q-6 -11 -20.5 -40t-39 -65.5t-58.5 -75.5t-78 -71.5t-98.5 -53.5t-118.5 -21q-57 0 -101 20.5t-75 58t-47 88.5t-16 113q0 60 17 112.5t46.5 91.5t68.5 61.5t83 22.5q33 0 60 -11.5t45.5 -30.5t29 -42t10.5 -46q0 -22 -5.5 -41t-14 -33.5t-19.5 -23t-22 -8.5
q-17 0 -27.5 11t-10.5 27q0 8 3.5 14t8 12.5t8 16t3.5 24.5q0 21 -19.5 38t-49.5 17q-28 0 -53.5 -17t-44.5 -45.5t-30.5 -67t-11.5 -81.5q0 -41 10 -78t30 -65.5t50.5 -45.5t72.5 -17q54 0 100 19.5t84 49.5t67 65.5t49.5 67t32 55t13.5 29.5q4 10 13.5 15.5t20.5 5.5
q17 0 27.5 -12t10.5 -27q0 -6 -4 -16zM311 705q0 -23 -16 -38.5t-39 -15.5t-38.5 15.5t-15.5 38.5t15.5 39t38.5 16t39 -16t16 -39z" />
    <glyph glyph-name="Ccaron" unicode="&#x10c;" horiz-adv-x="1739" 
d="M1674 371q-47 -76 -127 -150.5t-182.5 -134t-223.5 -96t-250 -36.5q-101 0 -201.5 18t-193 55t-172 93.5t-138.5 133.5t-92.5 175t-33.5 218q0 117 34.5 222t96.5 194.5t147 161.5t186 122.5t213 77.5t229 27q129 0 242.5 -30.5t198.5 -86t134.5 -133t49.5 -172.5
q0 -88 -41 -167.5t-112.5 -139.5t-167 -95t-203.5 -35q-87 0 -154 21.5t-112 59.5t-68 89t-23 110q0 49 15.5 89.5t34 69.5t35 45.5l18.5 18.5q5 5 11.5 6.5t12.5 1.5q16 0 27 -10t11 -26q0 -18 -13 -30q-2 -1 -14 -13.5t-26 -34t-25.5 -51.5t-11.5 -66q0 -57 25.5 -96
t66.5 -63.5t91 -35t100 -10.5q93 0 174.5 30t142.5 80t96 115t35 136q0 78 -44 142.5t-119 110t-175.5 70.5t-214.5 25q-86 0 -180.5 -20.5t-186.5 -61.5t-175.5 -102t-146.5 -142.5t-100.5 -182.5t-37.5 -221q0 -109 30.5 -197t84.5 -156.5t126.5 -118.5t156 -82.5
t174.5 -48t181 -15.5q120 0 231 33.5t205.5 88t167.5 122.5t116 137q5 9 14 13.5t19 4.5q17 0 27 -11.5t10 -25.5q0 -5 -1 -10t-4 -10zM845 1701q-6 9 -6 19q0 13 9.5 23t23.5 10q17 0 27 -13l82 -116l84 116q10 13 26 13q14 0 24 -10t10 -23q0 -12 -7 -20l-112 -152
q-10 -13 -27 -13t-26 14z" />
    <glyph glyph-name="ccaron" unicode="&#x10d;" horiz-adv-x="586" 
d="M692 277q-6 -11 -20.5 -40t-39 -65.5t-58.5 -75.5t-78 -71.5t-98.5 -53.5t-118.5 -21q-57 0 -101 20.5t-75 58t-47 88.5t-16 113q0 60 17 112.5t46.5 91.5t68.5 61.5t83 22.5q33 0 60 -11.5t45.5 -30.5t29 -42t10.5 -46q0 -22 -5.5 -41t-14 -33.5t-19.5 -23t-22 -8.5
q-17 0 -27.5 11t-10.5 27q0 8 3.5 14t8 12.5t8 16t3.5 24.5q0 21 -19.5 38t-49.5 17q-28 0 -53.5 -17t-44.5 -45.5t-30.5 -67t-11.5 -81.5q0 -41 10 -78t30 -65.5t50.5 -45.5t72.5 -17q54 0 100 19.5t84 49.5t67 65.5t49.5 67t32 55t13.5 29.5q4 10 13.5 15.5t20.5 5.5
q17 0 27.5 -12t10.5 -27q0 -6 -4 -16zM122 781q-6 9 -6 19q0 13 9.5 23t23.5 10q17 0 27 -13l82 -116l84 116q10 13 26 13q14 0 24 -10t10 -23q0 -12 -7 -20l-112 -152q-10 -13 -27 -13t-26 14z" />
    <glyph glyph-name="Dcaron" unicode="&#x10e;" horiz-adv-x="2094" 
d="M936 1471q123 0 251 -22.5t249 -68.5t228 -115.5t187 -162.5t126.5 -210t46.5 -259t-50 -263t-140 -209t-215 -138t-275 -50q-71 0 -147 10.5t-152 32.5t-149.5 54.5t-140.5 77.5q-79 -78 -182.5 -121.5t-218.5 -43.5q-62 0 -116 14t-93.5 40t-62 63t-22.5 82
q0 39 19.5 73t55 60t85 41t108.5 15q174 0 412 -128q44 55 72 124q31 77 48.5 158.5t31 162.5t28 158t40 145t67 124.5t108.5 96.5q10 5 18 5q14 0 26.5 -10t12.5 -28q0 -21 -19 -32q-53 -31 -86.5 -77.5t-55.5 -104.5t-35 -125t-25 -140q-10 -60 -22 -125.5t-30 -130
t-45.5 -126t-67.5 -113.5q2 -1 2.5 -1.5t2.5 -1.5q127 -76 264 -115t268 -39q142 0 254.5 47t190.5 126.5t119 185.5t41 224q0 120 -40 223.5t-109.5 188.5t-165 151t-206 110.5t-232 68t-243.5 23.5q-164 0 -299.5 -27.5t-233 -80.5t-151.5 -130t-54 -175q0 -56 16.5 -99
t42 -74.5t55.5 -53.5t56 -35.5t44.5 -19.5t21.5 -7q13 -3 20.5 -13.5t7.5 -23.5q0 -17 -12 -26t-26 -9q-20 0 -50 9.5t-63.5 29t-67 49t-60.5 69.5t-43.5 91t-16.5 113q0 113 57.5 203.5t162.5 153.5t251.5 97t325.5 34zM686 186q-104 55 -193 83t-163 28q-42 0 -77.5 -9.5
t-61.5 -25.5t-41 -37t-15 -44q0 -22 13.5 -44t41 -39t68.5 -28t96 -11q94 0 179.5 33.5t152.5 93.5zM895 1717q-6 9 -6 19q0 13 9.5 23t23.5 10q17 0 27 -13l82 -116l84 116q10 13 26 13q14 0 24 -10t10 -23q0 -12 -7 -20l-112 -152q-10 -13 -27 -13t-26 14z" />
    <glyph glyph-name="dcaron" unicode="&#x10f;" horiz-adv-x="888" 
d="M426 291q49 -231 142 -231q36 0 69 26.5t61.5 65t50.5 81.5t36 75q10 24 35 24q16 0 27 -12t11 -26q0 -8 -3 -14q-7 -17 -20.5 -45.5t-33 -61t-43.5 -66.5t-53 -61t-61.5 -44.5t-68.5 -17.5q-67 0 -115 46.5t-83 153.5q-48 -102 -97 -148t-106 -46q-30 0 -58 9.5
t-49 31.5t-34 56.5t-13 84.5q0 69 24 127t62 99.5t84.5 64.5t92.5 23q15 0 26 -10.5t11 -26.5q0 -14 -9 -25t-24 -13q-30 -4 -64 -19t-62.5 -43.5t-47 -72.5t-18.5 -105q0 -50 20.5 -78t59.5 -28q16 0 34 8.5t38.5 33.5t45 71t54.5 121q-17 88 -31 203t-14 257q0 62 4 129.5
t13 132t24 122.5t36.5 102t50.5 69.5t66 25.5q33 0 56 -18t37.5 -50t21.5 -77t7 -99q0 -116 -20 -232t-49.5 -222t-62.5 -196t-60 -155zM543 1097q0 25 -1.5 54t-7 54.5t-14.5 42.5t-24 17q-25 0 -46.5 -44t-37.5 -115.5t-25.5 -162t-9.5 -182.5q0 -88 7 -176t16 -157
q29 77 55 158.5t45.5 166.5t31 171.5t11.5 172.5zM847 1364q6 -153 -100 -261q-13 -11 -27 -11q-16 0 -27 11t-11 26.5t11 26.5q83 85 79 205q-1 16 9.5 27.5t26.5 11.5q15 0 26.5 -10t12.5 -26z" />
    <glyph glyph-name="Eth" unicode="&#xd0;" horiz-adv-x="2094" 
d="M936 1471q123 0 251 -22.5t249 -68.5t228 -115.5t187 -162.5t126.5 -210t46.5 -259t-50 -263t-140 -209t-215 -138t-275 -50q-71 0 -147 10.5t-152 32.5t-149.5 54.5t-140.5 77.5q-79 -78 -182.5 -121.5t-218.5 -43.5q-62 0 -116 14t-93.5 40t-62 63t-22.5 82
q0 39 19.5 73t55 60t85 41t108.5 15q174 0 412 -128q44 55 72 124q25 63 41 127.5t27 130.5h-48t-41.5 -0.5t-42 -1t-49.5 -0.5q-14 0 -25.5 9.5t-11.5 24.5q0 16 9 27t26 11l196 2q13 79 28 154.5t40.5 142.5t66.5 123t107 95q10 5 18 5q14 0 26.5 -10t12.5 -28
q0 -21 -19 -32q-53 -31 -86.5 -77.5t-55.5 -104.5t-35 -125t-25 -140q0 -1 -0.5 -1.5t-0.5 -1.5l347 4q16 0 27.5 -9t12.5 -25q0 -16 -9.5 -27t-26.5 -11q-133 -2 -219.5 -2.5t-143.5 -0.5q-9 -54 -21 -110t-29.5 -110.5t-42.5 -105.5t-59 -95q2 -1 2.5 -1.5t2.5 -1.5
q127 -76 264 -115t268 -39q142 0 254.5 47t190.5 126.5t119 185.5t41 224q0 120 -40 223.5t-109.5 188.5t-165 151t-206 110.5t-232 68t-243.5 23.5q-164 0 -299.5 -27.5t-233 -80.5t-151.5 -130t-54 -175q0 -56 16.5 -99t42 -74.5t55.5 -53.5t56 -35.5t44.5 -19.5t21.5 -7
q13 -3 20.5 -13.5t7.5 -23.5q0 -17 -12 -26t-26 -9q-20 0 -50 9.5t-63.5 29t-67 49t-60.5 69.5t-43.5 91t-16.5 113q0 113 57.5 203.5t162.5 153.5t251.5 97t325.5 34zM686 186q-104 55 -193 83t-163 28q-42 0 -77.5 -9.5t-61.5 -25.5t-41 -37t-15 -44q0 -22 13.5 -44
t41 -39t68.5 -28t96 -11q94 0 179.5 33.5t152.5 93.5z" />
    <glyph glyph-name="eth" unicode="&#xf0;" horiz-adv-x="600" 
d="M561 998q15 2 25.5 -6.5t12.5 -22.5q2 -11 -3 -21.5t-16 -15.5l-153 -76q48 -84 76 -192t28 -234q0 -43 -6 -94t-19.5 -102t-36 -98t-56 -83t-79 -58t-104.5 -22q-47 0 -85.5 16.5t-66 46t-43 71t-15.5 91.5q0 64 28.5 116.5t77 92t112 64t134.5 33.5q17 2 25.5 -8
t8.5 -25q0 -17 -10 -28.5t-27 -13.5q-68 -7 -119 -30t-85.5 -55t-52 -70.5t-17.5 -75.5q0 -67 36.5 -110.5t100.5 -43.5q40 0 72 17.5t57 47t43 68t29.5 80.5t17 84.5t5.5 80.5q0 120 -26.5 222t-71.5 178l-147 -72q-3 -2 -10.5 -5.5t-15.5 -4.5q-15 -2 -25 7t-12 22
q-2 11 3 21.5t16 15.5l151 75q-41 51 -87 79t-94 28q-27 0 -43.5 -3t-28 -6t-19 -6t-15.5 -3q-15 0 -25 10t-10 25q0 8 2.5 16t16.5 15q1 0 8 4.5t21.5 9t36.5 8.5t53 4q72 0 137 -39t117 -108l161 80q3 1 6.5 2t5.5 1z" />
    <glyph glyph-name="Dcroat" unicode="&#x110;" horiz-adv-x="2094" 
d="M936 1471q123 0 251 -22.5t249 -68.5t228 -115.5t187 -162.5t126.5 -210t46.5 -259t-50 -263t-140 -209t-215 -138t-275 -50q-71 0 -147 10.5t-152 32.5t-149.5 54.5t-140.5 77.5q-79 -78 -182.5 -121.5t-218.5 -43.5q-62 0 -116 14t-93.5 40t-62 63t-22.5 82
q0 39 19.5 73t55 60t85 41t108.5 15q174 0 412 -128q44 55 72 124q25 63 41 127.5t27 130.5h-48t-41.5 -0.5t-42 -1t-49.5 -0.5q-14 0 -25.5 9.5t-11.5 24.5q0 16 9 27t26 11l196 2q13 79 28 154.5t40.5 142.5t66.5 123t107 95q10 5 18 5q14 0 26.5 -10t12.5 -28
q0 -21 -19 -32q-53 -31 -86.5 -77.5t-55.5 -104.5t-35 -125t-25 -140q0 -1 -0.5 -1.5t-0.5 -1.5l347 4q16 0 27.5 -9t12.5 -25q0 -16 -9.5 -27t-26.5 -11q-133 -2 -219.5 -2.5t-143.5 -0.5q-9 -54 -21 -110t-29.5 -110.5t-42.5 -105.5t-59 -95q2 -1 2.5 -1.5t2.5 -1.5
q127 -76 264 -115t268 -39q142 0 254.5 47t190.5 126.5t119 185.5t41 224q0 120 -40 223.5t-109.5 188.5t-165 151t-206 110.5t-232 68t-243.5 23.5q-164 0 -299.5 -27.5t-233 -80.5t-151.5 -130t-54 -175q0 -56 16.5 -99t42 -74.5t55.5 -53.5t56 -35.5t44.5 -19.5t21.5 -7
q13 -3 20.5 -13.5t7.5 -23.5q0 -17 -12 -26t-26 -9q-20 0 -50 9.5t-63.5 29t-67 49t-60.5 69.5t-43.5 91t-16.5 113q0 113 57.5 203.5t162.5 153.5t251.5 97t325.5 34zM686 186q-104 55 -193 83t-163 28q-42 0 -77.5 -9.5t-61.5 -25.5t-41 -37t-15 -44q0 -22 13.5 -44
t41 -39t68.5 -28t96 -11q94 0 179.5 33.5t152.5 93.5z" />
    <glyph glyph-name="dcroat" unicode="&#x111;" horiz-adv-x="748" 
d="M792 917q0 -16 -9.5 -27t-26.5 -11q-45 -1 -83.5 -1h-72.5q-14 -88 -35.5 -172t-45.5 -160t-48.5 -141t-44.5 -114q49 -231 142 -231q36 0 69 26.5t61.5 65t50.5 81.5t36 75q10 24 35 24q16 0 27 -12t11 -26q0 -8 -3 -14q-7 -17 -20.5 -45.5t-33 -61t-43.5 -66.5t-53 -61
t-61.5 -44.5t-68.5 -17.5q-67 0 -115 46.5t-83 153.5q-48 -102 -97 -148t-106 -46q-30 0 -58 9.5t-49 31.5t-34 56.5t-13 84.5q0 69 24 127t62 99.5t84.5 64.5t92.5 23q15 0 26 -10.5t11 -26.5q0 -14 -9 -25t-24 -13q-30 -4 -64 -19t-62.5 -43.5t-47 -72.5t-18.5 -105
q0 -50 20.5 -78t59.5 -28q16 0 34 8.5t38.5 33.5t45 71t54.5 121q-17 88 -31 203t-14 257q0 56 3 116h-44t-39.5 -0.5t-40 -1t-47.5 -0.5q-14 0 -25.5 9.5t-11.5 24.5q0 16 9 27t26 11l178 1q7 76 21 147t36.5 126t54 88t74.5 33q33 0 56 -18t37.5 -50t21.5 -77t7 -99
q0 -37 -2 -73.5t-6 -73.5l142 2q16 0 27.5 -9t12.5 -25zM400 428q39 105 72 218t52 231q-45 -1 -80 -1h-64q-3 -57 -3 -115q0 -88 7 -176t16 -157zM543 1097q0 25 -1.5 54t-7 54.5t-14.5 42.5t-24 17q-18 0 -35 -25t-31.5 -68.5t-25.5 -101t-18 -123.5l148 2q9 73 9 148z
" />
    <glyph glyph-name="Egrave" unicode="&#xc8;" horiz-adv-x="1698" 
d="M1636 425q-1 -4 -14 -34t-43.5 -74t-80.5 -97t-126 -103.5t-180 -92t-241 -63.5q-92 -15 -193 -15q-84 0 -168.5 11.5t-162 36t-144.5 62.5t-116.5 90t-78 119.5t-28.5 150.5q0 147 81.5 253t241.5 165q-57 53 -85 117t-28 133q0 86 39.5 159t109.5 126t166.5 82.5
t211.5 29.5q116 0 202.5 -22t148 -55t101 -72t62.5 -73t32 -57.5t10 -26.5q1 -4 1 -11q0 -14 -10.5 -25.5t-27.5 -11.5q-12 0 -21.5 7.5t-13.5 20.5q0 2 -8 21.5t-28 47.5t-54.5 59.5t-88.5 59t-129 45.5t-176 18q-116 0 -201.5 -29t-141 -75.5t-82.5 -103.5t-27 -112
q0 -65 32 -124t92 -101q54 14 106 22t98 12.5t83.5 6t61.5 1.5q44 0 81 -6.5t63.5 -19t41.5 -32t15 -44.5t-15 -45t-41.5 -34t-63.5 -21.5t-81 -7.5q-48 0 -97 6t-95.5 17t-89.5 27.5t-78 37.5q-159 -48 -241 -138.5t-82 -223.5q0 -72 25.5 -129.5t70.5 -101.5t105.5 -75.5
t129.5 -51.5t144 -29.5t149 -9.5q48 0 93 3.5t87 10.5q126 20 221.5 58.5t165 84t115.5 93t73.5 87t39 64.5t11.5 26q4 12 13.5 18.5t21.5 6.5q16 0 27 -11t11 -26q0 -4 -2 -12zM943 800q0 8 -13 14t-33.5 9.5t-46.5 5t-53 1.5q-59 0 -112 -3.5t-121 -16.5
q52 -19 119.5 -30.5t136.5 -11.5q63 0 93 10t30 22zM872 1618q10 -10 10 -24q0 -13 -9.5 -23t-23.5 -10q-13 0 -23 9l-160 152q-10 9 -10 23t10 24t23 10q12 0 23 -9l160 -152v0z" />
    <glyph glyph-name="egrave" unicode="&#xe8;" horiz-adv-x="523" 
d="M158 110q21 -29 54 -46.5t81 -17.5q49 0 89 23.5t73 61.5t59 85t47 94q5 11 14 16.5t20 5.5q17 0 27.5 -12t10.5 -26q0 -5 -1 -8.5t-3 -7.5q-69 -152 -150.5 -229t-184.5 -79q-66 0 -114 25.5t-79 66t-46 91.5t-15 102t12.5 94t36 75t56 50t71.5 18q23 0 45.5 -9.5
t40.5 -27t29 -42.5t11 -57q0 -41 -14 -77t-38.5 -67t-58.5 -57t-73 -45zM128 175q31 13 56.5 33t43.5 44t28 50.5t10 53.5q0 30 -15 45.5t-35 15.5q-27 0 -46 -15t-31 -39t-17.5 -53.5t-5.5 -58.5q0 -18 3.5 -38t8.5 -38zM293 647q10 -10 10 -24q0 -13 -9.5 -23t-23.5 -10
q-13 0 -23 9l-160 152q-10 9 -10 23t10 24t23 10q12 0 23 -9l160 -152v0z" />
    <glyph glyph-name="Eacute" unicode="&#xc9;" horiz-adv-x="1698" 
d="M1636 425q-1 -4 -14 -34t-43.5 -74t-80.5 -97t-126 -103.5t-180 -92t-241 -63.5q-92 -15 -193 -15q-84 0 -168.5 11.5t-162 36t-144.5 62.5t-116.5 90t-78 119.5t-28.5 150.5q0 147 81.5 253t241.5 165q-57 53 -85 117t-28 133q0 86 39.5 159t109.5 126t166.5 82.5
t211.5 29.5q116 0 202.5 -22t148 -55t101 -72t62.5 -73t32 -57.5t10 -26.5q1 -4 1 -11q0 -14 -10.5 -25.5t-27.5 -11.5q-12 0 -21.5 7.5t-13.5 20.5q0 2 -8 21.5t-28 47.5t-54.5 59.5t-88.5 59t-129 45.5t-176 18q-116 0 -201.5 -29t-141 -75.5t-82.5 -103.5t-27 -112
q0 -65 32 -124t92 -101q54 14 106 22t98 12.5t83.5 6t61.5 1.5q44 0 81 -6.5t63.5 -19t41.5 -32t15 -44.5t-15 -45t-41.5 -34t-63.5 -21.5t-81 -7.5q-48 0 -97 6t-95.5 17t-89.5 27.5t-78 37.5q-159 -48 -241 -138.5t-82 -223.5q0 -72 25.5 -129.5t70.5 -101.5t105.5 -75.5
t129.5 -51.5t144 -29.5t149 -9.5q48 0 93 3.5t87 10.5q126 20 221.5 58.5t165 84t115.5 93t73.5 87t39 64.5t11.5 26q4 12 13.5 18.5t21.5 6.5q16 0 27 -11t11 -26q0 -4 -2 -12zM943 800q0 8 -13 14t-33.5 9.5t-46.5 5t-53 1.5q-59 0 -112 -3.5t-121 -16.5
q52 -19 119.5 -30.5t136.5 -11.5q63 0 93 10t30 22zM746 1618l160 152q10 9 23 9t23 -10t10 -24t-10 -23l-160 -152q-11 -9 -23 -9q-14 0 -23.5 10t-9.5 23q0 14 10 24z" />
    <glyph glyph-name="eacute" unicode="&#xe9;" horiz-adv-x="523" 
d="M158 110q21 -29 54 -46.5t81 -17.5q49 0 89 23.5t73 61.5t59 85t47 94q5 11 14 16.5t20 5.5q17 0 27.5 -12t10.5 -26q0 -5 -1 -8.5t-3 -7.5q-69 -152 -150.5 -229t-184.5 -79q-66 0 -114 25.5t-79 66t-46 91.5t-15 102t12.5 94t36 75t56 50t71.5 18q23 0 45.5 -9.5
t40.5 -27t29 -42.5t11 -57q0 -41 -14 -77t-38.5 -67t-58.5 -57t-73 -45zM128 175q31 13 56.5 33t43.5 44t28 50.5t10 53.5q0 30 -15 45.5t-35 15.5q-27 0 -46 -15t-31 -39t-17.5 -53.5t-5.5 -58.5q0 -18 3.5 -38t8.5 -38zM166 647l160 152q10 9 23 9t23 -10t10 -24t-10 -23
l-160 -152q-11 -9 -23 -9q-14 0 -23.5 10t-9.5 23q0 14 10 24z" />
    <glyph glyph-name="Ecircumflex" unicode="&#xca;" horiz-adv-x="1698" 
d="M1636 425q-1 -4 -14 -34t-43.5 -74t-80.5 -97t-126 -103.5t-180 -92t-241 -63.5q-92 -15 -193 -15q-84 0 -168.5 11.5t-162 36t-144.5 62.5t-116.5 90t-78 119.5t-28.5 150.5q0 147 81.5 253t241.5 165q-57 53 -85 117t-28 133q0 86 39.5 159t109.5 126t166.5 82.5
t211.5 29.5q116 0 202.5 -22t148 -55t101 -72t62.5 -73t32 -57.5t10 -26.5q1 -4 1 -11q0 -14 -10.5 -25.5t-27.5 -11.5q-12 0 -21.5 7.5t-13.5 20.5q0 2 -8 21.5t-28 47.5t-54.5 59.5t-88.5 59t-129 45.5t-176 18q-116 0 -201.5 -29t-141 -75.5t-82.5 -103.5t-27 -112
q0 -65 32 -124t92 -101q54 14 106 22t98 12.5t83.5 6t61.5 1.5q44 0 81 -6.5t63.5 -19t41.5 -32t15 -44.5t-15 -45t-41.5 -34t-63.5 -21.5t-81 -7.5q-48 0 -97 6t-95.5 17t-89.5 27.5t-78 37.5q-159 -48 -241 -138.5t-82 -223.5q0 -72 25.5 -129.5t70.5 -101.5t105.5 -75.5
t129.5 -51.5t144 -29.5t149 -9.5q48 0 93 3.5t87 10.5q126 20 221.5 58.5t165 84t115.5 93t73.5 87t39 64.5t11.5 26q4 12 13.5 18.5t21.5 6.5q16 0 27 -11t11 -26q0 -4 -2 -12zM943 800q0 8 -13 14t-33.5 9.5t-46.5 5t-53 1.5q-59 0 -112 -3.5t-121 -16.5
q52 -19 119.5 -30.5t136.5 -11.5q63 0 93 10t30 22zM942 1613q6 -9 6 -19q0 -13 -9.5 -23t-23.5 -10q-17 0 -27 13l-82 116l-84 -116q-10 -13 -26 -13q-14 0 -24 10t-10 23q0 12 7 20l112 152q10 13 27 13t26 -14z" />
    <glyph glyph-name="ecircumflex" unicode="&#xea;" horiz-adv-x="523" 
d="M158 110q21 -29 54 -46.5t81 -17.5q49 0 89 23.5t73 61.5t59 85t47 94q5 11 14 16.5t20 5.5q17 0 27.5 -12t10.5 -26q0 -5 -1 -8.5t-3 -7.5q-69 -152 -150.5 -229t-184.5 -79q-66 0 -114 25.5t-79 66t-46 91.5t-15 102t12.5 94t36 75t56 50t71.5 18q23 0 45.5 -9.5
t40.5 -27t29 -42.5t11 -57q0 -41 -14 -77t-38.5 -67t-58.5 -57t-73 -45zM128 175q31 13 56.5 33t43.5 44t28 50.5t10 53.5q0 30 -15 45.5t-35 15.5q-27 0 -46 -15t-31 -39t-17.5 -53.5t-5.5 -58.5q0 -18 3.5 -38t8.5 -38zM363 642q6 -9 6 -19q0 -13 -9.5 -23t-23.5 -10
q-17 0 -27 13l-82 116l-84 -116q-10 -13 -26 -13q-14 0 -24 10t-10 23q0 12 7 20l112 152q10 13 27 13t26 -14z" />
    <glyph glyph-name="Edieresis" unicode="&#xcb;" horiz-adv-x="1698" 
d="M1636 425q-1 -4 -14 -34t-43.5 -74t-80.5 -97t-126 -103.5t-180 -92t-241 -63.5q-92 -15 -193 -15q-84 0 -168.5 11.5t-162 36t-144.5 62.5t-116.5 90t-78 119.5t-28.5 150.5q0 147 81.5 253t241.5 165q-57 53 -85 117t-28 133q0 86 39.5 159t109.5 126t166.5 82.5
t211.5 29.5q116 0 202.5 -22t148 -55t101 -72t62.5 -73t32 -57.5t10 -26.5q1 -4 1 -11q0 -14 -10.5 -25.5t-27.5 -11.5q-12 0 -21.5 7.5t-13.5 20.5q0 2 -8 21.5t-28 47.5t-54.5 59.5t-88.5 59t-129 45.5t-176 18q-116 0 -201.5 -29t-141 -75.5t-82.5 -103.5t-27 -112
q0 -65 32 -124t92 -101q54 14 106 22t98 12.5t83.5 6t61.5 1.5q44 0 81 -6.5t63.5 -19t41.5 -32t15 -44.5t-15 -45t-41.5 -34t-63.5 -21.5t-81 -7.5q-48 0 -97 6t-95.5 17t-89.5 27.5t-78 37.5q-159 -48 -241 -138.5t-82 -223.5q0 -72 25.5 -129.5t70.5 -101.5t105.5 -75.5
t129.5 -51.5t144 -29.5t149 -9.5q48 0 93 3.5t87 10.5q126 20 221.5 58.5t165 84t115.5 93t73.5 87t39 64.5t11.5 26q4 12 13.5 18.5t21.5 6.5q16 0 27 -11t11 -26q0 -4 -2 -12zM943 800q0 8 -13 14t-33.5 9.5t-46.5 5t-53 1.5q-59 0 -112 -3.5t-121 -16.5
q52 -19 119.5 -30.5t136.5 -11.5q63 0 93 10t30 22zM952 1651q0 -21 -15 -36t-38 -15q-21 0 -36 15t-15 36q0 22 15 37t36 15q23 0 38 -15t15 -37zM766 1651q0 -21 -15 -36t-37 -15q-21 0 -36 15t-15 36q0 22 15 37t36 15q22 0 37 -15t15 -37z" />
    <glyph glyph-name="edieresis" unicode="&#xeb;" horiz-adv-x="523" 
d="M158 110q21 -29 54 -46.5t81 -17.5q49 0 89 23.5t73 61.5t59 85t47 94q5 11 14 16.5t20 5.5q17 0 27.5 -12t10.5 -26q0 -5 -1 -8.5t-3 -7.5q-69 -152 -150.5 -229t-184.5 -79q-66 0 -114 25.5t-79 66t-46 91.5t-15 102t12.5 94t36 75t56 50t71.5 18q23 0 45.5 -9.5
t40.5 -27t29 -42.5t11 -57q0 -41 -14 -77t-38.5 -67t-58.5 -57t-73 -45zM128 175q31 13 56.5 33t43.5 44t28 50.5t10 53.5q0 30 -15 45.5t-35 15.5q-27 0 -46 -15t-31 -39t-17.5 -53.5t-5.5 -58.5q0 -18 3.5 -38t8.5 -38zM373 680q0 -21 -15 -36t-38 -15q-21 0 -36 15
t-15 36q0 22 15 37t36 15q23 0 38 -15t15 -37zM187 680q0 -21 -15 -36t-37 -15q-21 0 -36 15t-15 36q0 22 15 37t36 15q22 0 37 -15t15 -37z" />
    <glyph glyph-name="Emacron" unicode="&#x112;" horiz-adv-x="1698" 
d="M1636 425q-1 -4 -14 -34t-43.5 -74t-80.5 -97t-126 -103.5t-180 -92t-241 -63.5q-92 -15 -193 -15q-84 0 -168.5 11.5t-162 36t-144.5 62.5t-116.5 90t-78 119.5t-28.5 150.5q0 147 81.5 253t241.5 165q-57 53 -85 117t-28 133q0 86 39.5 159t109.5 126t166.5 82.5
t211.5 29.5q116 0 202.5 -22t148 -55t101 -72t62.5 -73t32 -57.5t10 -26.5q1 -4 1 -11q0 -14 -10.5 -25.5t-27.5 -11.5q-12 0 -21.5 7.5t-13.5 20.5q0 2 -8 21.5t-28 47.5t-54.5 59.5t-88.5 59t-129 45.5t-176 18q-116 0 -201.5 -29t-141 -75.5t-82.5 -103.5t-27 -112
q0 -65 32 -124t92 -101q54 14 106 22t98 12.5t83.5 6t61.5 1.5q44 0 81 -6.5t63.5 -19t41.5 -32t15 -44.5t-15 -45t-41.5 -34t-63.5 -21.5t-81 -7.5q-48 0 -97 6t-95.5 17t-89.5 27.5t-78 37.5q-159 -48 -241 -138.5t-82 -223.5q0 -72 25.5 -129.5t70.5 -101.5t105.5 -75.5
t129.5 -51.5t144 -29.5t149 -9.5q48 0 93 3.5t87 10.5q126 20 221.5 58.5t165 84t115.5 93t73.5 87t39 64.5t11.5 26q4 12 13.5 18.5t21.5 6.5q16 0 27 -11t11 -26q0 -4 -2 -12zM943 800q0 8 -13 14t-33.5 9.5t-46.5 5t-53 1.5q-59 0 -112 -3.5t-121 -16.5
q52 -19 119.5 -30.5t136.5 -11.5q63 0 93 10t30 22zM966 1659q0 -14 -9 -23.5t-23 -10.5l-252 -10q-13 -1 -24 8.5t-11 23.5t9 23.5t23 10.5l253 10q14 1 24 -9t10 -23z" />
    <glyph glyph-name="emacron" unicode="&#x113;" horiz-adv-x="523" 
d="M158 110q21 -29 54 -46.5t81 -17.5q49 0 89 23.5t73 61.5t59 85t47 94q5 11 14 16.5t20 5.5q17 0 27.5 -12t10.5 -26q0 -5 -1 -8.5t-3 -7.5q-69 -152 -150.5 -229t-184.5 -79q-66 0 -114 25.5t-79 66t-46 91.5t-15 102t12.5 94t36 75t56 50t71.5 18q23 0 45.5 -9.5
t40.5 -27t29 -42.5t11 -57q0 -41 -14 -77t-38.5 -67t-58.5 -57t-73 -45zM128 175q31 13 56.5 33t43.5 44t28 50.5t10 53.5q0 30 -15 45.5t-35 15.5q-27 0 -46 -15t-31 -39t-17.5 -53.5t-5.5 -58.5q0 -18 3.5 -38t8.5 -38zM387 688q0 -14 -9 -23.5t-23 -10.5l-252 -10
q-13 -1 -24 8.5t-11 23.5t9 23.5t23 10.5l253 10q14 1 24 -9t10 -23z" />
    <glyph glyph-name="Ebreve" unicode="&#x114;" horiz-adv-x="1698" 
d="M1636 425q-1 -4 -14 -34t-43.5 -74t-80.5 -97t-126 -103.5t-180 -92t-241 -63.5q-92 -15 -193 -15q-84 0 -168.5 11.5t-162 36t-144.5 62.5t-116.5 90t-78 119.5t-28.5 150.5q0 147 81.5 253t241.5 165q-57 53 -85 117t-28 133q0 86 39.5 159t109.5 126t166.5 82.5
t211.5 29.5q116 0 202.5 -22t148 -55t101 -72t62.5 -73t32 -57.5t10 -26.5q1 -4 1 -11q0 -14 -10.5 -25.5t-27.5 -11.5q-12 0 -21.5 7.5t-13.5 20.5q0 2 -8 21.5t-28 47.5t-54.5 59.5t-88.5 59t-129 45.5t-176 18q-116 0 -201.5 -29t-141 -75.5t-82.5 -103.5t-27 -112
q0 -65 32 -124t92 -101q54 14 106 22t98 12.5t83.5 6t61.5 1.5q44 0 81 -6.5t63.5 -19t41.5 -32t15 -44.5t-15 -45t-41.5 -34t-63.5 -21.5t-81 -7.5q-48 0 -97 6t-95.5 17t-89.5 27.5t-78 37.5q-159 -48 -241 -138.5t-82 -223.5q0 -72 25.5 -129.5t70.5 -101.5t105.5 -75.5
t129.5 -51.5t144 -29.5t149 -9.5q48 0 93 3.5t87 10.5q126 20 221.5 58.5t165 84t115.5 93t73.5 87t39 64.5t11.5 26q4 12 13.5 18.5t21.5 6.5q16 0 27 -11t11 -26q0 -4 -2 -12zM943 800q0 8 -13 14t-33.5 9.5t-46.5 5t-53 1.5q-59 0 -112 -3.5t-121 -16.5
q52 -19 119.5 -30.5t136.5 -11.5q63 0 93 10t30 22zM948 1721q0 -29 -9.5 -56t-27.5 -48t-44.5 -33.5t-60.5 -12.5q-37 0 -64 15t-45 38t-26.5 49t-8.5 49q0 14 10 24t24 10q13 0 24 -10t11 -24t4.5 -29t14 -27.5t23.5 -21t33 -8.5q29 0 51 19t22 63q0 14 10 25t26 11
q14 0 23.5 -10t9.5 -23z" />
    <glyph glyph-name="ebreve" unicode="&#x115;" horiz-adv-x="523" 
d="M158 110q21 -29 54 -46.5t81 -17.5q49 0 89 23.5t73 61.5t59 85t47 94q5 11 14 16.5t20 5.5q17 0 27.5 -12t10.5 -26q0 -5 -1 -8.5t-3 -7.5q-69 -152 -150.5 -229t-184.5 -79q-66 0 -114 25.5t-79 66t-46 91.5t-15 102t12.5 94t36 75t56 50t71.5 18q23 0 45.5 -9.5
t40.5 -27t29 -42.5t11 -57q0 -41 -14 -77t-38.5 -67t-58.5 -57t-73 -45zM128 175q31 13 56.5 33t43.5 44t28 50.5t10 53.5q0 30 -15 45.5t-35 15.5q-27 0 -46 -15t-31 -39t-17.5 -53.5t-5.5 -58.5q0 -18 3.5 -38t8.5 -38zM369 750q0 -29 -9.5 -56t-27.5 -48t-44.5 -33.5
t-60.5 -12.5q-37 0 -64 15t-45 38t-26.5 49t-8.5 49q0 14 10 24t24 10q13 0 24 -10t11 -24t4.5 -29t14 -27.5t23.5 -21t33 -8.5q29 0 51 19t22 63q0 14 10 25t26 11q14 0 23.5 -10t9.5 -23z" />
    <glyph glyph-name="Edotaccent" unicode="&#x116;" horiz-adv-x="1698" 
d="M1636 425q-1 -4 -14 -34t-43.5 -74t-80.5 -97t-126 -103.5t-180 -92t-241 -63.5q-92 -15 -193 -15q-84 0 -168.5 11.5t-162 36t-144.5 62.5t-116.5 90t-78 119.5t-28.5 150.5q0 147 81.5 253t241.5 165q-57 53 -85 117t-28 133q0 86 39.5 159t109.5 126t166.5 82.5
t211.5 29.5q116 0 202.5 -22t148 -55t101 -72t62.5 -73t32 -57.5t10 -26.5q1 -4 1 -11q0 -14 -10.5 -25.5t-27.5 -11.5q-12 0 -21.5 7.5t-13.5 20.5q0 2 -8 21.5t-28 47.5t-54.5 59.5t-88.5 59t-129 45.5t-176 18q-116 0 -201.5 -29t-141 -75.5t-82.5 -103.5t-27 -112
q0 -65 32 -124t92 -101q54 14 106 22t98 12.5t83.5 6t61.5 1.5q44 0 81 -6.5t63.5 -19t41.5 -32t15 -44.5t-15 -45t-41.5 -34t-63.5 -21.5t-81 -7.5q-48 0 -97 6t-95.5 17t-89.5 27.5t-78 37.5q-159 -48 -241 -138.5t-82 -223.5q0 -72 25.5 -129.5t70.5 -101.5t105.5 -75.5
t129.5 -51.5t144 -29.5t149 -9.5q48 0 93 3.5t87 10.5q126 20 221.5 58.5t165 84t115.5 93t73.5 87t39 64.5t11.5 26q4 12 13.5 18.5t21.5 6.5q16 0 27 -11t11 -26q0 -4 -2 -12zM943 800q0 8 -13 14t-33.5 9.5t-46.5 5t-53 1.5q-59 0 -112 -3.5t-121 -16.5
q52 -19 119.5 -30.5t136.5 -11.5q63 0 93 10t30 22zM861 1651q0 -23 -16 -38.5t-39 -15.5t-38.5 15.5t-15.5 38.5t15.5 39t38.5 16t39 -16t16 -39z" />
    <glyph glyph-name="edotaccent" unicode="&#x117;" horiz-adv-x="523" 
d="M158 110q21 -29 54 -46.5t81 -17.5q49 0 89 23.5t73 61.5t59 85t47 94q5 11 14 16.5t20 5.5q17 0 27.5 -12t10.5 -26q0 -5 -1 -8.5t-3 -7.5q-69 -152 -150.5 -229t-184.5 -79q-66 0 -114 25.5t-79 66t-46 91.5t-15 102t12.5 94t36 75t56 50t71.5 18q23 0 45.5 -9.5
t40.5 -27t29 -42.5t11 -57q0 -41 -14 -77t-38.5 -67t-58.5 -57t-73 -45zM128 175q31 13 56.5 33t43.5 44t28 50.5t10 53.5q0 30 -15 45.5t-35 15.5q-27 0 -46 -15t-31 -39t-17.5 -53.5t-5.5 -58.5q0 -18 3.5 -38t8.5 -38zM282 680q0 -23 -16 -38.5t-39 -15.5t-38.5 15.5
t-15.5 38.5t15.5 39t38.5 16t39 -16t16 -39z" />
    <glyph glyph-name="Eogonek" unicode="&#x118;" horiz-adv-x="1698" 
d="M1446 -70q0 -16 -9 -33t-24.5 -31.5t-37.5 -24t-48 -9.5q-30 0 -52 9t-36 24t-21 33.5t-7 37.5q0 35 18.5 65t51.5 63q-35 -15 -75 -30.5t-83 -29.5t-86.5 -25t-85.5 -18q-92 -15 -193 -15q-84 0 -168.5 11.5t-162 36t-144.5 62.5t-116.5 90t-78 119.5t-28.5 150.5
q0 147 81.5 253t241.5 165q-57 53 -85 117t-28 133q0 86 39.5 159t109.5 126t166.5 82.5t211.5 29.5q116 0 202.5 -22t148 -55t101 -72t62.5 -73t32 -57.5t10 -26.5q1 -4 1 -11q0 -14 -10.5 -25.5t-27.5 -11.5q-12 0 -21.5 7.5t-13.5 20.5q0 2 -8 21.5t-28 47.5t-54.5 59.5
t-88.5 59t-129 45.5t-176 18q-116 0 -201.5 -29t-141 -75.5t-82.5 -103.5t-27 -112q0 -65 32 -124t92 -101q54 14 106 22t98 12.5t83.5 6t61.5 1.5q44 0 81 -6.5t63.5 -19t41.5 -32t15 -44.5t-15 -45t-41.5 -34t-63.5 -21.5t-81 -7.5q-48 0 -97 6t-95.5 17t-89.5 27.5
t-78 37.5q-159 -48 -241 -138.5t-82 -223.5q0 -72 25.5 -129.5t70.5 -101.5t105.5 -75.5t129.5 -51.5t144 -29.5t149 -9.5q48 0 93 3.5t87 10.5q126 20 221.5 58.5t165 84t115.5 93t73.5 87t39 64.5t11.5 26q4 12 13.5 18.5t21.5 6.5q16 0 27 -11t11 -26q0 -8 -2 -12
q-21 -52 -55.5 -101t-74 -94t-80 -85.5t-73 -76.5t-53 -67.5t-20.5 -57.5q0 -23 12.5 -34t32.5 -11q25 0 38 15.5t20 28.5q11 20 32 20q14 0 22.5 -9.5t8.5 -22.5zM943 800q0 8 -13 14t-33.5 9.5t-46.5 5t-53 1.5q-59 0 -112 -3.5t-121 -16.5q52 -19 119.5 -30.5
t136.5 -11.5q63 0 93 10t30 22z" />
    <glyph glyph-name="eogonek" unicode="&#x119;" horiz-adv-x="523" 
d="M397 -203q0 -16 -9 -33t-24.5 -31.5t-37.5 -24t-48 -9.5q-30 0 -52 10t-36 25.5t-21 35.5t-7 40q0 23 6 46t16 45t21.5 41.5t23.5 35.5q-49 12 -84.5 40t-59 66t-34.5 82.5t-11 88.5q0 51 12.5 94t36 75t56 50t71.5 18q23 0 45.5 -9.5t40.5 -27t29 -42.5t11 -57
q0 -41 -14 -77t-38.5 -67t-58.5 -57t-73 -45q21 -29 54 -46.5t81 -17.5q49 0 89 23.5t73 61.5t59 85t47 94q5 11 14 16.5t20 5.5q17 0 27.5 -12t10.5 -26q0 -5 -1 -8.5t-3 -7.5q-66 -144 -143 -221t-173 -86q-7 -8 -21 -26t-27.5 -41t-23.5 -47.5t-10 -46.5q0 -23 12.5 -34
t32.5 -11q25 0 38 15.5t20 28.5q11 20 32 20q14 0 22.5 -9.5t8.5 -22.5zM128 175q31 13 56.5 33t43.5 44t28 50.5t10 53.5q0 30 -15 45.5t-35 15.5q-27 0 -46 -15t-31 -39t-17.5 -53.5t-5.5 -58.5q0 -18 3.5 -38t8.5 -38z" />
    <glyph glyph-name="Ecaron" unicode="&#x11a;" horiz-adv-x="1698" 
d="M1636 425q-1 -4 -14 -34t-43.5 -74t-80.5 -97t-126 -103.5t-180 -92t-241 -63.5q-92 -15 -193 -15q-84 0 -168.5 11.5t-162 36t-144.5 62.5t-116.5 90t-78 119.5t-28.5 150.5q0 147 81.5 253t241.5 165q-57 53 -85 117t-28 133q0 86 39.5 159t109.5 126t166.5 82.5
t211.5 29.5q116 0 202.5 -22t148 -55t101 -72t62.5 -73t32 -57.5t10 -26.5q1 -4 1 -11q0 -14 -10.5 -25.5t-27.5 -11.5q-12 0 -21.5 7.5t-13.5 20.5q0 2 -8 21.5t-28 47.5t-54.5 59.5t-88.5 59t-129 45.5t-176 18q-116 0 -201.5 -29t-141 -75.5t-82.5 -103.5t-27 -112
q0 -65 32 -124t92 -101q54 14 106 22t98 12.5t83.5 6t61.5 1.5q44 0 81 -6.5t63.5 -19t41.5 -32t15 -44.5t-15 -45t-41.5 -34t-63.5 -21.5t-81 -7.5q-48 0 -97 6t-95.5 17t-89.5 27.5t-78 37.5q-159 -48 -241 -138.5t-82 -223.5q0 -72 25.5 -129.5t70.5 -101.5t105.5 -75.5
t129.5 -51.5t144 -29.5t149 -9.5q48 0 93 3.5t87 10.5q126 20 221.5 58.5t165 84t115.5 93t73.5 87t39 64.5t11.5 26q4 12 13.5 18.5t21.5 6.5q16 0 27 -11t11 -26q0 -4 -2 -12zM943 800q0 8 -13 14t-33.5 9.5t-46.5 5t-53 1.5q-59 0 -112 -3.5t-121 -16.5
q52 -19 119.5 -30.5t136.5 -11.5q63 0 93 10t30 22zM672 1727q-6 9 -6 19q0 13 9.5 23t23.5 10q17 0 27 -13l82 -116l84 116q10 13 26 13q14 0 24 -10t10 -23q0 -12 -7 -20l-112 -152q-10 -13 -27 -13t-26 14z" />
    <glyph glyph-name="ecaron" unicode="&#x11b;" horiz-adv-x="523" 
d="M158 110q21 -29 54 -46.5t81 -17.5q49 0 89 23.5t73 61.5t59 85t47 94q5 11 14 16.5t20 5.5q17 0 27.5 -12t10.5 -26q0 -5 -1 -8.5t-3 -7.5q-69 -152 -150.5 -229t-184.5 -79q-66 0 -114 25.5t-79 66t-46 91.5t-15 102t12.5 94t36 75t56 50t71.5 18q23 0 45.5 -9.5
t40.5 -27t29 -42.5t11 -57q0 -41 -14 -77t-38.5 -67t-58.5 -57t-73 -45zM128 175q31 13 56.5 33t43.5 44t28 50.5t10 53.5q0 30 -15 45.5t-35 15.5q-27 0 -46 -15t-31 -39t-17.5 -53.5t-5.5 -58.5q0 -18 3.5 -38t8.5 -38zM93 756q-6 9 -6 19q0 13 9.5 23t23.5 10
q17 0 27 -13l82 -116l84 116q10 13 26 13q14 0 24 -10t10 -23q0 -12 -7 -20l-112 -152q-10 -13 -27 -13t-26 14z" />
    <glyph glyph-name="Gcircumflex" unicode="&#x11c;" horiz-adv-x="1775" 
d="M1735 961q0 -15 -10.5 -27t-26.5 -12q-15 0 -26 10t-13 27q-1 4 -4.5 38t-20 83.5t-50.5 106t-93.5 104.5t-150.5 80t-221 32q-115 0 -231.5 -34.5t-223.5 -97t-200 -149t-161.5 -190.5t-108 -222t-39.5 -243q0 -113 31 -193.5t86 -131.5t129.5 -74.5t160.5 -23.5
q149 0 278.5 51.5t240 139t201.5 204t163 245.5q8 122 28.5 186.5t61.5 64.5q23 0 38.5 -19t15.5 -49q0 -33 -17 -84t-52 -118q-3 -47 -3 -101q0 -79 6.5 -173t20.5 -200q42 21 65.5 30.5t34.5 13t14 3t5 -0.5q15 0 26.5 -10.5t11.5 -27.5q0 -12 -7 -21.5t-19 -13.5
q-2 -1 -34.5 -13.5t-86.5 -39.5q5 -54 8 -109t3 -111q0 -132 -19 -252t-62.5 -211t-115.5 -144.5t-177 -53.5q-52 0 -96 18t-76 50t-50 76.5t-18 97.5q0 75 25.5 148t68 141t97.5 128.5t113 111.5t114.5 90t103.5 63q-13 100 -21 196.5t-10 187.5q-87 -139 -191.5 -245
t-218.5 -178t-234.5 -108.5t-239.5 -36.5q-108 0 -196 32.5t-151 95.5t-97 156t-34 214q0 128 40 252.5t111 237t168.5 207.5t213 164.5t244 109t262.5 39.5q129 0 224 -29.5t161.5 -75t108 -99t65.5 -101.5q20 -41 31.5 -79t17 -67t7 -47t1.5 -19zM1482 71
q-50 -28 -103.5 -66.5t-104 -84.5t-95.5 -99t-79 -110t-53.5 -117.5t-19.5 -121.5q0 -38 12 -68.5t34 -52t52 -33.5t66 -12q141 0 220 149.5t79 436.5q0 43 -2 87.5t-6 91.5zM1266 1613q6 -9 6 -19q0 -13 -9.5 -23t-23.5 -10q-17 0 -27 13l-82 116l-84 -116q-10 -13 -26 -13
q-14 0 -24 10t-10 23q0 12 7 20l112 152q10 13 27 13t26 -14z" />
    <glyph glyph-name="gcircumflex" unicode="&#x11d;" horiz-adv-x="623" 
d="M400 -98q188 245 261 407q5 11 13.5 16.5t19.5 5.5q17 0 28 -11.5t11 -26.5q0 -7 -3 -14q-44 -100 -125 -223t-205 -278q0 -63 1 -126t1 -138t-3.5 -148.5t-12.5 -140t-24.5 -123t-40 -98t-59 -65t-81.5 -23.5q-67 0 -103 51t-36 145q0 50 9.5 108.5t27.5 120.5
t43.5 125.5t56.5 123.5t67.5 115t77.5 100q1 70 1.5 139t2.5 127q-30 -38 -71.5 -60t-82.5 -22q-35 0 -63.5 13.5t-48.5 38t-31 57.5t-11 72q0 78 26.5 137.5t67.5 99.5t90.5 60t95.5 20q31 0 57 -8t44.5 -18t28.5 -19t11 -10q11 -12 11 -27t-11 -26.5t-26 -11.5
q-14 0 -27 11q-4 3 -10.5 8.5t-17 11.5t-25 10t-34.5 4q-30 0 -66 -13.5t-67 -42.5t-52 -74.5t-21 -109.5q0 -48 21 -77.5t65 -29.5q21 0 44.5 12t45.5 37t38.5 63t23.5 90q2 14 13 23.5t26 9.5q17 0 26.5 -12t9.5 -27q0 -1 -1 -30.5t-2 -78.5t-2.5 -113.5t-2.5 -136.5z
M324 -317q-47 -65 -85 -141.5t-65 -154.5t-41.5 -151.5t-14.5 -131.5q0 -37 6.5 -59t16 -34t21 -16t21.5 -4q31 0 54 25t39 66.5t26 95.5t15 111.5t7 114.5t2 105v86t-2 88zM412 636q6 -9 6 -19q0 -13 -9.5 -23t-23.5 -10q-17 0 -27 13l-82 116l-84 -116q-10 -13 -26 -13
q-14 0 -24 10t-10 23q0 12 7 20l112 152q10 13 27 13t26 -14z" />
    <glyph glyph-name="Gbreve" unicode="&#x11e;" horiz-adv-x="1775" 
d="M1735 961q0 -15 -10.5 -27t-26.5 -12q-15 0 -26 10t-13 27q-1 4 -4.5 38t-20 83.5t-50.5 106t-93.5 104.5t-150.5 80t-221 32q-115 0 -231.5 -34.5t-223.5 -97t-200 -149t-161.5 -190.5t-108 -222t-39.5 -243q0 -113 31 -193.5t86 -131.5t129.5 -74.5t160.5 -23.5
q149 0 278.5 51.5t240 139t201.5 204t163 245.5q8 122 28.5 186.5t61.5 64.5q23 0 38.5 -19t15.5 -49q0 -33 -17 -84t-52 -118q-3 -47 -3 -101q0 -79 6.5 -173t20.5 -200q42 21 65.5 30.5t34.5 13t14 3t5 -0.5q15 0 26.5 -10.5t11.5 -27.5q0 -12 -7 -21.5t-19 -13.5
q-2 -1 -34.5 -13.5t-86.5 -39.5q5 -54 8 -109t3 -111q0 -132 -19 -252t-62.5 -211t-115.5 -144.5t-177 -53.5q-52 0 -96 18t-76 50t-50 76.5t-18 97.5q0 75 25.5 148t68 141t97.5 128.5t113 111.5t114.5 90t103.5 63q-13 100 -21 196.5t-10 187.5q-87 -139 -191.5 -245
t-218.5 -178t-234.5 -108.5t-239.5 -36.5q-108 0 -196 32.5t-151 95.5t-97 156t-34 214q0 128 40 252.5t111 237t168.5 207.5t213 164.5t244 109t262.5 39.5q129 0 224 -29.5t161.5 -75t108 -99t65.5 -101.5q20 -41 31.5 -79t17 -67t7 -47t1.5 -19zM1482 71
q-50 -28 -103.5 -66.5t-104 -84.5t-95.5 -99t-79 -110t-53.5 -117.5t-19.5 -121.5q0 -38 12 -68.5t34 -52t52 -33.5t66 -12q141 0 220 149.5t79 436.5q0 43 -2 87.5t-6 91.5zM1272 1721q0 -29 -9.5 -56t-27.5 -48t-44.5 -33.5t-60.5 -12.5q-37 0 -64 15t-45 38t-26.5 49
t-8.5 49q0 14 10 24t24 10q13 0 24 -10t11 -24t4.5 -29t14 -27.5t23.5 -21t33 -8.5q29 0 51 19t22 63q0 14 10 25t26 11q14 0 23.5 -10t9.5 -23z" />
    <glyph glyph-name="gbreve" unicode="&#x11f;" horiz-adv-x="623" 
d="M400 -98q188 245 261 407q5 11 13.5 16.5t19.5 5.5q17 0 28 -11.5t11 -26.5q0 -7 -3 -14q-44 -100 -125 -223t-205 -278q0 -63 1 -126t1 -138t-3.5 -148.5t-12.5 -140t-24.5 -123t-40 -98t-59 -65t-81.5 -23.5q-67 0 -103 51t-36 145q0 50 9.5 108.5t27.5 120.5
t43.5 125.5t56.5 123.5t67.5 115t77.5 100q1 70 1.5 139t2.5 127q-30 -38 -71.5 -60t-82.5 -22q-35 0 -63.5 13.5t-48.5 38t-31 57.5t-11 72q0 78 26.5 137.5t67.5 99.5t90.5 60t95.5 20q31 0 57 -8t44.5 -18t28.5 -19t11 -10q11 -12 11 -27t-11 -26.5t-26 -11.5
q-14 0 -27 11q-4 3 -10.5 8.5t-17 11.5t-25 10t-34.5 4q-30 0 -66 -13.5t-67 -42.5t-52 -74.5t-21 -109.5q0 -48 21 -77.5t65 -29.5q21 0 44.5 12t45.5 37t38.5 63t23.5 90q2 14 13 23.5t26 9.5q17 0 26.5 -12t9.5 -27q0 -1 -1 -30.5t-2 -78.5t-2.5 -113.5t-2.5 -136.5z
M324 -317q-47 -65 -85 -141.5t-65 -154.5t-41.5 -151.5t-14.5 -131.5q0 -37 6.5 -59t16 -34t21 -16t21.5 -4q31 0 54 25t39 66.5t26 95.5t15 111.5t7 114.5t2 105v86t-2 88zM418 744q0 -29 -9.5 -56t-27.5 -48t-44.5 -33.5t-60.5 -12.5q-37 0 -64 15t-45 38t-26.5 49
t-8.5 49q0 14 10 24t24 10q13 0 24 -10t11 -24t4.5 -29t14 -27.5t23.5 -21t33 -8.5q29 0 51 19t22 63q0 14 10 25t26 11q14 0 23.5 -10t9.5 -23z" />
    <glyph glyph-name="Gdotaccent" unicode="&#x120;" horiz-adv-x="1775" 
d="M1735 961q0 -15 -10.5 -27t-26.5 -12q-15 0 -26 10t-13 27q-1 4 -4.5 38t-20 83.5t-50.5 106t-93.5 104.5t-150.5 80t-221 32q-115 0 -231.5 -34.5t-223.5 -97t-200 -149t-161.5 -190.5t-108 -222t-39.5 -243q0 -113 31 -193.5t86 -131.5t129.5 -74.5t160.5 -23.5
q149 0 278.5 51.5t240 139t201.5 204t163 245.5q8 122 28.5 186.5t61.5 64.5q23 0 38.5 -19t15.5 -49q0 -33 -17 -84t-52 -118q-3 -47 -3 -101q0 -79 6.5 -173t20.5 -200q42 21 65.5 30.5t34.5 13t14 3t5 -0.5q15 0 26.5 -10.5t11.5 -27.5q0 -12 -7 -21.5t-19 -13.5
q-2 -1 -34.5 -13.5t-86.5 -39.5q5 -54 8 -109t3 -111q0 -132 -19 -252t-62.5 -211t-115.5 -144.5t-177 -53.5q-52 0 -96 18t-76 50t-50 76.5t-18 97.5q0 75 25.5 148t68 141t97.5 128.5t113 111.5t114.5 90t103.5 63q-13 100 -21 196.5t-10 187.5q-87 -139 -191.5 -245
t-218.5 -178t-234.5 -108.5t-239.5 -36.5q-108 0 -196 32.5t-151 95.5t-97 156t-34 214q0 128 40 252.5t111 237t168.5 207.5t213 164.5t244 109t262.5 39.5q129 0 224 -29.5t161.5 -75t108 -99t65.5 -101.5q20 -41 31.5 -79t17 -67t7 -47t1.5 -19zM1482 71
q-50 -28 -103.5 -66.5t-104 -84.5t-95.5 -99t-79 -110t-53.5 -117.5t-19.5 -121.5q0 -38 12 -68.5t34 -52t52 -33.5t66 -12q141 0 220 149.5t79 436.5q0 43 -2 87.5t-6 91.5zM1185 1651q0 -23 -16 -38.5t-39 -15.5t-38.5 15.5t-15.5 38.5t15.5 39t38.5 16t39 -16t16 -39z
" />
    <glyph glyph-name="gdotaccent" unicode="&#x121;" horiz-adv-x="623" 
d="M400 -98q188 245 261 407q5 11 13.5 16.5t19.5 5.5q17 0 28 -11.5t11 -26.5q0 -7 -3 -14q-44 -100 -125 -223t-205 -278q0 -63 1 -126t1 -138t-3.5 -148.5t-12.5 -140t-24.5 -123t-40 -98t-59 -65t-81.5 -23.5q-67 0 -103 51t-36 145q0 50 9.5 108.5t27.5 120.5
t43.5 125.5t56.5 123.5t67.5 115t77.5 100q1 70 1.5 139t2.5 127q-30 -38 -71.5 -60t-82.5 -22q-35 0 -63.5 13.5t-48.5 38t-31 57.5t-11 72q0 78 26.5 137.5t67.5 99.5t90.5 60t95.5 20q31 0 57 -8t44.5 -18t28.5 -19t11 -10q11 -12 11 -27t-11 -26.5t-26 -11.5
q-14 0 -27 11q-4 3 -10.5 8.5t-17 11.5t-25 10t-34.5 4q-30 0 -66 -13.5t-67 -42.5t-52 -74.5t-21 -109.5q0 -48 21 -77.5t65 -29.5q21 0 44.5 12t45.5 37t38.5 63t23.5 90q2 14 13 23.5t26 9.5q17 0 26.5 -12t9.5 -27q0 -1 -1 -30.5t-2 -78.5t-2.5 -113.5t-2.5 -136.5z
M324 -317q-47 -65 -85 -141.5t-65 -154.5t-41.5 -151.5t-14.5 -131.5q0 -37 6.5 -59t16 -34t21 -16t21.5 -4q31 0 54 25t39 66.5t26 95.5t15 111.5t7 114.5t2 105v86t-2 88zM331 674q0 -23 -16 -38.5t-39 -15.5t-38.5 15.5t-15.5 38.5t15.5 39t38.5 16t39 -16t16 -39z" />
    <glyph glyph-name="Gcommaaccent" unicode="&#x122;" horiz-adv-x="1775" 
d="M1735 961q0 -15 -10.5 -27t-26.5 -12q-15 0 -26 10t-13 27q-1 4 -4.5 38t-20 83.5t-50.5 106t-93.5 104.5t-150.5 80t-221 32q-115 0 -231.5 -34.5t-223.5 -97t-200 -149t-161.5 -190.5t-108 -222t-39.5 -243q0 -113 31 -193.5t86 -131.5t129.5 -74.5t160.5 -23.5
q149 0 278.5 51.5t240 139t201.5 204t163 245.5q8 122 28.5 186.5t61.5 64.5q23 0 38.5 -19t15.5 -49q0 -33 -17 -84t-52 -118q-3 -47 -3 -101q0 -79 6.5 -173t20.5 -200q42 21 65.5 30.5t34.5 13t14 3t5 -0.5q15 0 26.5 -10.5t11.5 -27.5q0 -12 -7 -21.5t-19 -13.5
q-2 -1 -34.5 -13.5t-86.5 -39.5q5 -54 8 -109t3 -111q0 -132 -19 -252t-62.5 -211t-115.5 -144.5t-177 -53.5q-52 0 -96 18t-76 50t-50 76.5t-18 97.5q0 75 25.5 148t68 141t97.5 128.5t113 111.5t114.5 90t103.5 63q-13 100 -21 196.5t-10 187.5q-87 -139 -191.5 -245
t-218.5 -178t-234.5 -108.5t-239.5 -36.5q-108 0 -196 32.5t-151 95.5t-97 156t-34 214q0 128 40 252.5t111 237t168.5 207.5t213 164.5t244 109t262.5 39.5q129 0 224 -29.5t161.5 -75t108 -99t65.5 -101.5q20 -41 31.5 -79t17 -67t7 -47t1.5 -19zM1482 71
q-50 -28 -103.5 -66.5t-104 -84.5t-95.5 -99t-79 -110t-53.5 -117.5t-19.5 -121.5q0 -38 12 -68.5t34 -52t52 -33.5t66 -12q141 0 220 149.5t79 436.5q0 43 -2 87.5t-6 91.5zM664 -242q0 -55 -20 -108.5t-77 -95.5q-6 -4 -14.5 -7t-17.5 -3q-17 0 -26 9t-9 21q0 19 16 31
q39 29 56 64.5t17 85.5q0 16 9.5 27.5t26.5 11.5q15 0 26.5 -9.5t12.5 -26.5z" />
    <glyph glyph-name="gcommaaccent" unicode="&#x123;" horiz-adv-x="623" 
d="M400 -98q188 245 261 407q5 11 13.5 16.5t19.5 5.5q17 0 28 -11.5t11 -26.5q0 -7 -3 -14q-44 -100 -125 -223t-205 -278q0 -63 1 -126t1 -138t-3.5 -148.5t-12.5 -140t-24.5 -123t-40 -98t-59 -65t-81.5 -23.5q-67 0 -103 51t-36 145q0 50 9.5 108.5t27.5 120.5
t43.5 125.5t56.5 123.5t67.5 115t77.5 100q1 70 1.5 139t2.5 127q-30 -38 -71.5 -60t-82.5 -22q-35 0 -63.5 13.5t-48.5 38t-31 57.5t-11 72q0 78 26.5 137.5t67.5 99.5t90.5 60t95.5 20q31 0 57 -8t44.5 -18t28.5 -19t11 -10q11 -12 11 -27t-11 -26.5t-26 -11.5
q-14 0 -27 11q-4 3 -10.5 8.5t-17 11.5t-25 10t-34.5 4q-30 0 -66 -13.5t-67 -42.5t-52 -74.5t-21 -109.5q0 -48 21 -77.5t65 -29.5q21 0 44.5 12t45.5 37t38.5 63t23.5 90q2 14 13 23.5t26 9.5q17 0 26.5 -12t9.5 -27q0 -1 -1 -30.5t-2 -78.5t-2.5 -113.5t-2.5 -136.5z
M324 -317q-47 -65 -85 -141.5t-65 -154.5t-41.5 -151.5t-14.5 -131.5q0 -37 6.5 -59t16 -34t21 -16t21.5 -4q31 0 54 25t39 66.5t26 95.5t15 111.5t7 114.5t2 105v86t-2 88zM231 620q0 55 20 108.5t77 95.5q6 4 14.5 7t17.5 3q17 0 26 -9t9 -21q0 -19 -16 -31
q-39 -29 -56 -64.5t-17 -85.5q0 -16 -9.5 -27.5t-26.5 -11.5q-15 0 -26.5 9.5t-12.5 26.5z" />
    <glyph glyph-name="Hcircumflex" unicode="&#x124;" horiz-adv-x="2425" 
d="M1519 1451q0 -35 -19 -69t-49 -63t-67.5 -52.5t-74.5 -38.5q-10 -42 -16 -93.5t-8 -114.5q-2 -78 -6 -155t-12 -153q81 3 177 6.5t201 6.5t215.5 5t220.5 2q8 160 35 284t70.5 209t102.5 129t131 44q12 0 29.5 -2t34.5 -7.5t29 -16t12 -28.5q0 -5 -1 -9.5t-4 -9.5
q-11 -18 -30 -18q-8 0 -12.5 2.5t-11 5t-16.5 5t-28 2.5q-15 0 -38.5 -5.5t-50.5 -25.5t-55.5 -58.5t-53 -104t-43 -162.5t-24.5 -234q66 -1 130 -2t126 -3q17 0 26.5 -11.5t9.5 -27.5t-11 -26t-26 -10q-20 0 -41.5 0.5t-51 1.5t-69.5 2t-95 1q-1 -16 -1 -32v-33
q0 -110 8.5 -197t21 -154t27.5 -114.5t28 -78t21.5 -45l8.5 -14.5q7 -10 7 -22q0 -15 -11 -26.5t-27 -11.5q-19 0 -30 16q-2 3 -22.5 39t-44.5 113.5t-43.5 199t-19.5 295.5v65q-111 0 -223 -2t-217.5 -5t-202 -6.5t-177.5 -6.5q-19 -139 -58.5 -262t-113 -215.5
t-187.5 -146t-281 -53.5q-88 0 -170.5 18.5t-153.5 52t-128 80.5t-93 103q-6 9 -6 20q0 15 10.5 26.5t27.5 11.5q9 0 18 -4.5t14 -12.5q31 -49 80.5 -89t112.5 -69t136.5 -45t152.5 -16q147 0 247 46.5t163.5 127.5t98 189.5t51.5 233.5q-96 -5 -152 -8t-58 -3
q-15 0 -27.5 9.5t-12.5 26.5q0 16 9.5 27t25.5 13q2 0 62 3t162 8q8 77 12.5 155.5t8.5 158.5q2 51 7.5 98.5t13.5 86.5q-23 -5 -51.5 -8.5t-56.5 -3.5q-88 0 -173 14t-170.5 30.5t-172 30.5t-176.5 14q-74 0 -138.5 -15.5t-112.5 -47.5t-75.5 -80.5t-27.5 -114.5
q0 -42 15 -74t34 -54t36.5 -34.5t22.5 -15.5q18 -13 18 -33q0 -16 -10 -26.5t-25 -10.5q-7 0 -13.5 2.5t-11.5 5.5q-23 14 -48 36t-46 52.5t-34.5 68.5t-13.5 83q0 88 38.5 151.5t100.5 104t138.5 59.5t153.5 19q87 0 172.5 -14.5t171.5 -31.5t172.5 -31.5t176.5 -14.5
q36 0 65 2.5t55 10.5q18 63 41.5 108.5t50 75t53.5 43.5t52 14q33 0 55.5 -20t22.5 -52zM1436 1452q-8 0 -21.5 -8.5t-29.5 -26t-32 -44.5t-28 -64q33 15 58 39t40 47.5t19 40t-6 16.5zM2007 1628q6 -9 6 -19q0 -13 -9.5 -23t-23.5 -10q-17 0 -27 13l-82 116l-84 -116
q-10 -13 -26 -13q-14 0 -24 10t-10 23q0 12 7 20l112 152q10 13 27 13t26 -14z" />
    <glyph glyph-name="hcircumflex" unicode="&#x125;" horiz-adv-x="769" 
d="M117 85q16 34 37 73.5t45 81t51 82.5t56 77q29 35 58.5 50.5t55.5 15.5t45.5 -10.5t32 -28.5t19 -42t6.5 -52q0 -23 -4.5 -61.5t-4.5 -80.5q0 -24 2.5 -47.5t9 -42t19.5 -30t34 -11.5q24 0 48 13.5t47 36t44 50t38 55t30 53t21 42.5q10 23 35 23q17 0 27 -12t10 -26
q0 -8 -3 -15q-4 -8 -15.5 -33t-31 -58t-45.5 -69t-57.5 -66.5t-68 -50t-76.5 -19.5q-46 0 -74 19.5t-43.5 49.5t-21 67t-5.5 72q0 18 1.5 38.5t3.5 40.5t3.5 37.5t1.5 29.5q0 31 -8.5 42t-19.5 11q-16 0 -36.5 -18.5t-43 -48.5t-45 -67.5t-43.5 -74.5t-38 -70.5t-28 -55.5
q-21 -42 -42.5 -56.5t-38.5 -14.5q-31 0 -47.5 24.5t-16.5 59.5v63q0 189 0.5 360.5t5 319t15 267t31.5 204t53.5 130.5t81.5 46q42 0 71 -23t47 -62.5t26 -92t8 -110.5q0 -118 -21.5 -231.5t-57.5 -221.5t-84 -210.5t-101 -199.5v-43v-50v-47v-35zM117 454
q42 92 76.5 179.5t59 174.5t38.5 176.5t14 186.5q0 16 -1.5 51t-9 71t-23 63t-43.5 27q-22 0 -38 -29.5t-28 -80t-20 -117.5t-13 -142t-7.5 -154t-3.5 -153.5t-1 -139.5v-113zM372 1596q6 -9 6 -19q0 -13 -9.5 -23t-23.5 -10q-17 0 -27 13l-82 116l-84 -116q-10 -13 -26 -13
q-14 0 -24 10t-10 23q0 12 7 20l112 152q10 13 27 13t26 -14z" />
    <glyph glyph-name="Hbar" unicode="&#x126;" horiz-adv-x="2425" 
d="M1519 1451q0 -35 -19 -69t-49 -63t-67.5 -52.5t-74.5 -38.5q-10 -42 -16 -93.5t-8 -114.5q-1 -13 -1 -25.5t-1 -25.5l825 4q37 207 117 316t195 109q12 0 29.5 -2t34.5 -7.5t29 -16t12 -28.5q0 -5 -1 -9.5t-4 -9.5q-11 -18 -30 -18q-8 0 -12.5 2.5t-11 5t-16.5 5t-28 2.5
q-12 0 -30.5 -3.5t-40 -16t-45 -35.5t-46 -62t-42.5 -95.5t-35 -136.5l163 1q16 0 27.5 -9t12.5 -25q0 -16 -9.5 -27t-26.5 -11q-43 -1 -87.5 -1t-90.5 -1q-11 -75 -15 -168q66 -1 130 -2t126 -3q17 0 26.5 -11.5t9.5 -27.5t-11 -26t-26 -10q-20 0 -41.5 0.5t-51 1.5
t-69.5 2t-95 1q-1 -16 -1 -32v-33q0 -110 8.5 -197t21 -154t27.5 -114.5t28 -78t21.5 -45l8.5 -14.5q7 -10 7 -22q0 -15 -11 -26.5t-27 -11.5q-19 0 -30 16q-2 3 -22.5 39t-44.5 113.5t-43.5 199t-19.5 295.5v65q-111 0 -223 -2t-217.5 -5t-202 -6.5t-177.5 -6.5
q-19 -139 -58.5 -262t-113 -215.5t-187.5 -146t-281 -53.5q-88 0 -170.5 18.5t-153.5 52t-128 80.5t-93 103q-6 9 -6 20q0 15 10.5 26.5t27.5 11.5q9 0 18 -4.5t14 -12.5q31 -49 80.5 -89t112.5 -69t136.5 -45t152.5 -16q147 0 247 46.5t163.5 127.5t98 189.5t51.5 233.5
q-96 -5 -152 -8t-58 -3q-15 0 -27.5 9.5t-12.5 26.5q0 16 9.5 27t25.5 13q2 0 62 3t162 8q5 47 8.5 93.5t5.5 94.5q-60 0 -106.5 -0.5t-72.5 -0.5q-14 0 -25.5 9.5t-11.5 24.5q0 16 9 27t26 11l185 1l3 54q2 51 7.5 98.5t13.5 86.5q-23 -5 -51.5 -8.5t-56.5 -3.5
q-88 0 -173 14t-170.5 30.5t-172 30.5t-176.5 14q-74 0 -138.5 -15.5t-112.5 -47.5t-75.5 -80.5t-27.5 -114.5q0 -42 15 -74t34 -54t36.5 -34.5t22.5 -15.5q18 -13 18 -33q0 -16 -10 -26.5t-25 -10.5q-7 0 -13.5 2.5t-11.5 5.5q-23 14 -48 36t-46 52.5t-34.5 68.5t-13.5 83
q0 88 38.5 151.5t100.5 104t138.5 59.5t153.5 19q87 0 172.5 -14.5t171.5 -31.5t172.5 -31.5t176.5 -14.5q36 0 65 2.5t55 10.5q18 63 41.5 108.5t50 75t53.5 43.5t52 14q33 0 55.5 -20t22.5 -52zM2081 732q5 91 15 168q-108 -1 -218 -1.5t-215.5 -0.5t-203 -0.5
t-179.5 -0.5q-2 -47 -5 -93t-8 -92q81 3 177 6.5t201 6.5t215.5 5t220.5 2zM1436 1452q-8 0 -21.5 -8.5t-29.5 -26t-32 -44.5t-28 -64q33 15 58 39t40 47.5t19 40t-6 16.5z" />
    <glyph glyph-name="hbar" unicode="&#x127;" horiz-adv-x="769" 
d="M117 85q16 34 37 73.5t45 81t51 82.5t56 77q29 35 58.5 50.5t55.5 15.5t45.5 -10.5t32 -28.5t19 -42t6.5 -52q0 -23 -4.5 -61.5t-4.5 -80.5q0 -24 2.5 -47.5t9 -42t19.5 -30t34 -11.5q24 0 48 13.5t47 36t44 50t38 55t30 53t21 42.5q10 23 35 23q17 0 27 -12t10 -26
q0 -8 -3 -15q-4 -8 -15.5 -33t-31 -58t-45.5 -69t-57.5 -66.5t-68 -50t-76.5 -19.5q-46 0 -74 19.5t-43.5 49.5t-21 67t-5.5 72q0 18 1.5 38.5t3.5 40.5t3.5 37.5t1.5 29.5q0 31 -8.5 42t-19.5 11q-16 0 -36.5 -18.5t-43 -48.5t-45 -67.5t-43.5 -74.5t-38 -70.5t-28 -55.5
q-21 -42 -42.5 -56.5t-38.5 -14.5q-31 0 -47.5 24.5t-16.5 59.5v63q0 211 0.5 398.5t6.5 345.5q-21 0 -38.5 -0.5t-35.5 -0.5t-38 -0.5t-45 -0.5q-14 0 -25.5 9.5t-11.5 24.5q0 16 9 27t26 11l163 1q6 118 18.5 213t33 161.5t51 102t73.5 35.5q42 0 71 -23t47 -62.5t26 -92
t8 -110.5q0 -57 -5 -112t-15 -109l149 2q16 0 27.5 -9t12.5 -25q0 -16 -9.5 -27t-26.5 -11q-48 -1 -89.5 -1t-77.5 -1q-35 -153 -96 -295t-134 -275v-43v-50v-47v-35zM228 1383q-24 0 -41.5 -36t-29.5 -96.5t-20 -139.5t-12 -164l160 1q10 54 15 109t5 114q0 16 -1.5 51
t-9 71t-23 63t-43.5 27zM117 454q50 111 89.5 214t64.5 209q-48 -1 -84 -1h-65q-2 -61 -3 -120.5t-1.5 -114.5t-0.5 -102.5v-84.5z" />
    <glyph glyph-name="Igrave" unicode="&#xcc;" horiz-adv-x="1300" 
d="M1270 1550q24 0 42 -21t18 -52q0 -42 -33.5 -93.5t-96.5 -107.5q-11 -56 -19 -127.5t-8 -162.5q0 -140 -9 -273t-34 -250t-70.5 -215t-119 -168.5t-178.5 -110t-249 -39.5q-120 0 -214 28t-159.5 77.5t-100 116t-34.5 144.5t33 144.5t89 116t130.5 77.5t158.5 28
q13 0 26.5 -0.5t24.5 -4t18.5 -12t7.5 -23.5q0 -16 -11.5 -26.5t-26.5 -10.5q-10 0 -19.5 0.5t-19.5 0.5q-68 0 -129 -22t-107 -61t-73 -92t-27 -115q0 -55 20 -98t54 -75.5t78.5 -55.5t93.5 -37t99.5 -20.5t96.5 -6.5q127 0 219 36t155.5 101t102.5 155.5t61 200t29.5 234
t8.5 257.5q1 64 5 125.5t11 111.5q-40 -21 -88 -41t-96.5 -41.5t-94.5 -46t-81.5 -54t-57 -66t-21.5 -81.5q0 -41 14 -71.5t35 -51.5t46 -34.5t46.5 -21t37 -11t17.5 -3.5q17 -5 23 -13.5t6 -20.5q0 -17 -10 -27.5t-25 -10.5q-2 0 -8.5 0.5t-8.5 1.5q-33 7 -76 24.5
t-81.5 49t-65 79.5t-26.5 117q0 61 30 108t78.5 84t108 66t118.5 54.5t111 49.5t85 52q28 121 65 178t75 57zM1335 1687q10 -10 10 -24q0 -13 -9.5 -23t-23.5 -10q-13 0 -23 9l-160 152q-10 9 -10 23t10 24t23 10q12 0 23 -9l160 -152v0z" />
    <glyph glyph-name="igrave" unicode="&#xec;" horiz-adv-x="430" 
d="M39 199q0 144 18 287q2 14 12.5 24.5t27.5 10.5q15 0 25 -11.5t10 -26.5q0 -6 -2.5 -36t-6 -71.5t-6 -88t-2.5 -85.5q0 -53 10.5 -85.5t27 -50.5t35 -24t35.5 -6q28 0 58 20t61.5 56t63.5 86.5t63 112.5q5 10 14 15.5t20 5.5q16 0 26.5 -12t10.5 -26q0 -10 -4 -17
q-12 -23 -30 -56t-41 -68t-50.5 -69.5t-58.5 -62t-65 -44.5t-69 -17q-45 0 -79 19t-57.5 51t-35 75.5t-11.5 93.5zM155 641q10 -10 10 -24q0 -13 -9.5 -23t-23.5 -10q-13 0 -23 9l-160 152q-10 9 -10 23t10 24t23 10q12 0 23 -9l160 -152v0z" />
    <glyph glyph-name="Iacute" unicode="&#xcd;" horiz-adv-x="1300" 
d="M1270 1550q24 0 42 -21t18 -52q0 -42 -33.5 -93.5t-96.5 -107.5q-11 -56 -19 -127.5t-8 -162.5q0 -140 -9 -273t-34 -250t-70.5 -215t-119 -168.5t-178.5 -110t-249 -39.5q-120 0 -214 28t-159.5 77.5t-100 116t-34.5 144.5t33 144.5t89 116t130.5 77.5t158.5 28
q13 0 26.5 -0.5t24.5 -4t18.5 -12t7.5 -23.5q0 -16 -11.5 -26.5t-26.5 -10.5q-10 0 -19.5 0.5t-19.5 0.5q-68 0 -129 -22t-107 -61t-73 -92t-27 -115q0 -55 20 -98t54 -75.5t78.5 -55.5t93.5 -37t99.5 -20.5t96.5 -6.5q127 0 219 36t155.5 101t102.5 155.5t61 200t29.5 234
t8.5 257.5q1 64 5 125.5t11 111.5q-40 -21 -88 -41t-96.5 -41.5t-94.5 -46t-81.5 -54t-57 -66t-21.5 -81.5q0 -41 14 -71.5t35 -51.5t46 -34.5t46.5 -21t37 -11t17.5 -3.5q17 -5 23 -13.5t6 -20.5q0 -17 -10 -27.5t-25 -10.5q-2 0 -8.5 0.5t-8.5 1.5q-33 7 -76 24.5
t-81.5 49t-65 79.5t-26.5 117q0 61 30 108t78.5 84t108 66t118.5 54.5t111 49.5t85 52q28 121 65 178t75 57zM1209 1687l160 152q10 9 23 9t23 -10t10 -24t-10 -23l-160 -152q-11 -9 -23 -9q-14 0 -23.5 10t-9.5 23q0 14 10 24z" />
    <glyph glyph-name="iacute" unicode="&#xed;" horiz-adv-x="430" 
d="M39 199q0 144 18 287q2 14 12.5 24.5t27.5 10.5q15 0 25 -11.5t10 -26.5q0 -6 -2.5 -36t-6 -71.5t-6 -88t-2.5 -85.5q0 -53 10.5 -85.5t27 -50.5t35 -24t35.5 -6q28 0 58 20t61.5 56t63.5 86.5t63 112.5q5 10 14 15.5t20 5.5q16 0 26.5 -12t10.5 -26q0 -10 -4 -17
q-12 -23 -30 -56t-41 -68t-50.5 -69.5t-58.5 -62t-65 -44.5t-69 -17q-45 0 -79 19t-57.5 51t-35 75.5t-11.5 93.5zM53 641l160 152q10 9 23 9t23 -10t10 -24t-10 -23l-160 -152q-11 -9 -23 -9q-14 0 -23.5 10t-9.5 23q0 14 10 24z" />
    <glyph glyph-name="Icircumflex" unicode="&#xce;" horiz-adv-x="1300" 
d="M1270 1550q24 0 42 -21t18 -52q0 -42 -33.5 -93.5t-96.5 -107.5q-11 -56 -19 -127.5t-8 -162.5q0 -140 -9 -273t-34 -250t-70.5 -215t-119 -168.5t-178.5 -110t-249 -39.5q-120 0 -214 28t-159.5 77.5t-100 116t-34.5 144.5t33 144.5t89 116t130.5 77.5t158.5 28
q13 0 26.5 -0.5t24.5 -4t18.5 -12t7.5 -23.5q0 -16 -11.5 -26.5t-26.5 -10.5q-10 0 -19.5 0.5t-19.5 0.5q-68 0 -129 -22t-107 -61t-73 -92t-27 -115q0 -55 20 -98t54 -75.5t78.5 -55.5t93.5 -37t99.5 -20.5t96.5 -6.5q127 0 219 36t155.5 101t102.5 155.5t61 200t29.5 234
t8.5 257.5q1 64 5 125.5t11 111.5q-40 -21 -88 -41t-96.5 -41.5t-94.5 -46t-81.5 -54t-57 -66t-21.5 -81.5q0 -41 14 -71.5t35 -51.5t46 -34.5t46.5 -21t37 -11t17.5 -3.5q17 -5 23 -13.5t6 -20.5q0 -17 -10 -27.5t-25 -10.5q-2 0 -8.5 0.5t-8.5 1.5q-33 7 -76 24.5
t-81.5 49t-65 79.5t-26.5 117q0 61 30 108t78.5 84t108 66t118.5 54.5t111 49.5t85 52q28 121 65 178t75 57zM1405 1682q6 -9 6 -19q0 -13 -9.5 -23t-23.5 -10q-17 0 -27 13l-82 116l-84 -116q-10 -13 -26 -13q-14 0 -24 10t-10 23q0 12 7 20l112 152q10 13 27 13t26 -14z
" />
    <glyph glyph-name="icircumflex" unicode="&#xee;" horiz-adv-x="430" 
d="M39 199q0 144 18 287q2 14 12.5 24.5t27.5 10.5q15 0 25 -11.5t10 -26.5q0 -6 -2.5 -36t-6 -71.5t-6 -88t-2.5 -85.5q0 -53 10.5 -85.5t27 -50.5t35 -24t35.5 -6q28 0 58 20t61.5 56t63.5 86.5t63 112.5q5 10 14 15.5t20 5.5q16 0 26.5 -12t10.5 -26q0 -10 -4 -17
q-12 -23 -30 -56t-41 -68t-50.5 -69.5t-58.5 -62t-65 -44.5t-69 -17q-45 0 -79 19t-57.5 51t-35 75.5t-11.5 93.5zM237 636q6 -9 6 -19q0 -13 -9.5 -23t-23.5 -10q-17 0 -27 13l-82 116l-84 -116q-10 -13 -26 -13q-14 0 -24 10t-10 23q0 12 7 20l112 152q10 13 27 13t26 -14
z" />
    <glyph glyph-name="Idieresis" unicode="&#xcf;" horiz-adv-x="1300" 
d="M1270 1550q24 0 42 -21t18 -52q0 -42 -33.5 -93.5t-96.5 -107.5q-11 -56 -19 -127.5t-8 -162.5q0 -140 -9 -273t-34 -250t-70.5 -215t-119 -168.5t-178.5 -110t-249 -39.5q-120 0 -214 28t-159.5 77.5t-100 116t-34.5 144.5t33 144.5t89 116t130.5 77.5t158.5 28
q13 0 26.5 -0.5t24.5 -4t18.5 -12t7.5 -23.5q0 -16 -11.5 -26.5t-26.5 -10.5q-10 0 -19.5 0.5t-19.5 0.5q-68 0 -129 -22t-107 -61t-73 -92t-27 -115q0 -55 20 -98t54 -75.5t78.5 -55.5t93.5 -37t99.5 -20.5t96.5 -6.5q127 0 219 36t155.5 101t102.5 155.5t61 200t29.5 234
t8.5 257.5q1 64 5 125.5t11 111.5q-40 -21 -88 -41t-96.5 -41.5t-94.5 -46t-81.5 -54t-57 -66t-21.5 -81.5q0 -41 14 -71.5t35 -51.5t46 -34.5t46.5 -21t37 -11t17.5 -3.5q17 -5 23 -13.5t6 -20.5q0 -17 -10 -27.5t-25 -10.5q-2 0 -8.5 0.5t-8.5 1.5q-33 7 -76 24.5
t-81.5 49t-65 79.5t-26.5 117q0 61 30 108t78.5 84t108 66t118.5 54.5t111 49.5t85 52q28 121 65 178t75 57zM1415 1720q0 -21 -15 -36t-38 -15q-21 0 -36 15t-15 36q0 22 15 37t36 15q23 0 38 -15t15 -37zM1229 1720q0 -21 -15 -36t-37 -15q-21 0 -36 15t-15 36q0 22 15 37
t36 15q22 0 37 -15t15 -37z" />
    <glyph glyph-name="idieresis" unicode="&#xef;" horiz-adv-x="430" 
d="M39 199q0 144 18 287q2 14 12.5 24.5t27.5 10.5q15 0 25 -11.5t10 -26.5q0 -6 -2.5 -36t-6 -71.5t-6 -88t-2.5 -85.5q0 -53 10.5 -85.5t27 -50.5t35 -24t35.5 -6q28 0 58 20t61.5 56t63.5 86.5t63 112.5q5 10 14 15.5t20 5.5q16 0 26.5 -12t10.5 -26q0 -10 -4 -17
q-12 -23 -30 -56t-41 -68t-50.5 -69.5t-58.5 -62t-65 -44.5t-69 -17q-45 0 -79 19t-57.5 51t-35 75.5t-11.5 93.5zM251 674q0 -21 -15 -36t-38 -15q-21 0 -36 15t-15 36q0 22 15 37t36 15q23 0 38 -15t15 -37zM65 674q0 -21 -15 -36t-37 -15q-21 0 -36 15t-15 36q0 22 15 37
t36 15q22 0 37 -15t15 -37z" />
    <glyph glyph-name="Itilde" unicode="&#x128;" horiz-adv-x="1300" 
d="M1270 1550q24 0 42 -21t18 -52q0 -42 -33.5 -93.5t-96.5 -107.5q-11 -56 -19 -127.5t-8 -162.5q0 -140 -9 -273t-34 -250t-70.5 -215t-119 -168.5t-178.5 -110t-249 -39.5q-120 0 -214 28t-159.5 77.5t-100 116t-34.5 144.5t33 144.5t89 116t130.5 77.5t158.5 28
q13 0 26.5 -0.5t24.5 -4t18.5 -12t7.5 -23.5q0 -16 -11.5 -26.5t-26.5 -10.5q-10 0 -19.5 0.5t-19.5 0.5q-68 0 -129 -22t-107 -61t-73 -92t-27 -115q0 -55 20 -98t54 -75.5t78.5 -55.5t93.5 -37t99.5 -20.5t96.5 -6.5q127 0 219 36t155.5 101t102.5 155.5t61 200t29.5 234
t8.5 257.5q1 64 5 125.5t11 111.5q-40 -21 -88 -41t-96.5 -41.5t-94.5 -46t-81.5 -54t-57 -66t-21.5 -81.5q0 -41 14 -71.5t35 -51.5t46 -34.5t46.5 -21t37 -11t17.5 -3.5q17 -5 23 -13.5t6 -20.5q0 -17 -10 -27.5t-25 -10.5q-2 0 -8.5 0.5t-8.5 1.5q-33 7 -76 24.5
t-81.5 49t-65 79.5t-26.5 117q0 61 30 108t78.5 84t108 66t118.5 54.5t111 49.5t85 52q28 121 65 178t75 57zM1433 1732q0 -18 -7.5 -34t-20.5 -28t-31.5 -19t-40.5 -7q-20 0 -35 6t-26.5 16t-19.5 21t-15 22q-9 14 -17.5 24t-20.5 10q-9 0 -14.5 -3.5t-7.5 -7.5t-2.5 -8.5
t-0.5 -5.5q0 -10 2.5 -17.5t6.5 -15.5q2 -4 3 -8t1 -9q0 -13 -10 -22.5t-26 -9.5q-8 0 -17 3.5t-16 12.5t-11.5 25t-4.5 41q0 16 6.5 32.5t18.5 29t30 20.5t42 8q21 0 36 -6.5t27 -16t20.5 -21.5t15.5 -22q10 -14 18.5 -24t20.5 -10q16 0 20 8.5t4 13.5q0 12 -4 22.5
t-8 19.5q-7 12 -7 20q0 12 10 22t26 10q19 0 37 -23t18 -69z" />
    <glyph glyph-name="itilde" unicode="&#x129;" horiz-adv-x="430" 
d="M39 199q0 144 18 287q2 14 12.5 24.5t27.5 10.5q15 0 25 -11.5t10 -26.5q0 -6 -2.5 -36t-6 -71.5t-6 -88t-2.5 -85.5q0 -53 10.5 -85.5t27 -50.5t35 -24t35.5 -6q28 0 58 20t61.5 56t63.5 86.5t63 112.5q5 10 14 15.5t20 5.5q16 0 26.5 -12t10.5 -26q0 -10 -4 -17
q-12 -23 -30 -56t-41 -68t-50.5 -69.5t-58.5 -62t-65 -44.5t-69 -17q-45 0 -79 19t-57.5 51t-35 75.5t-11.5 93.5zM270 686q0 -18 -7.5 -34t-20.5 -28t-31.5 -19t-40.5 -7q-20 0 -35 6t-26.5 16t-19.5 21t-15 22q-9 14 -17.5 24t-20.5 10q-9 0 -14.5 -3.5t-7.5 -7.5
t-2.5 -8.5t-0.5 -5.5q0 -10 2.5 -17.5t6.5 -15.5q2 -4 3 -8t1 -9q0 -13 -10 -22.5t-26 -9.5q-8 0 -17 3.5t-16 12.5t-11.5 25t-4.5 41q0 16 6.5 32.5t18.5 29t30 20.5t42 8q21 0 36 -6.5t27 -16t20.5 -21.5t15.5 -22q10 -14 18.5 -24t20.5 -10q16 0 20 8.5t4 13.5
q0 12 -4 22.5t-8 19.5q-7 12 -7 20q0 12 10 22t26 10q19 0 37 -23t18 -69z" />
    <glyph glyph-name="Imacron" horiz-adv-x="1300" 
d="M1270 1550q24 0 42 -21t18 -52q0 -42 -33.5 -93.5t-96.5 -107.5q-11 -56 -19 -127.5t-8 -162.5q0 -140 -9 -273t-34 -250t-70.5 -215t-119 -168.5t-178.5 -110t-249 -39.5q-120 0 -214 28t-159.5 77.5t-100 116t-34.5 144.5t33 144.5t89 116t130.5 77.5t158.5 28
q13 0 26.5 -0.5t24.5 -4t18.5 -12t7.5 -23.5q0 -16 -11.5 -26.5t-26.5 -10.5q-10 0 -19.5 0.5t-19.5 0.5q-68 0 -129 -22t-107 -61t-73 -92t-27 -115q0 -55 20 -98t54 -75.5t78.5 -55.5t93.5 -37t99.5 -20.5t96.5 -6.5q127 0 219 36t155.5 101t102.5 155.5t61 200t29.5 234
t8.5 257.5q1 64 5 125.5t11 111.5q-40 -21 -88 -41t-96.5 -41.5t-94.5 -46t-81.5 -54t-57 -66t-21.5 -81.5q0 -41 14 -71.5t35 -51.5t46 -34.5t46.5 -21t37 -11t17.5 -3.5q17 -5 23 -13.5t6 -20.5q0 -17 -10 -27.5t-25 -10.5q-2 0 -8.5 0.5t-8.5 1.5q-33 7 -76 24.5
t-81.5 49t-65 79.5t-26.5 117q0 61 30 108t78.5 84t108 66t118.5 54.5t111 49.5t85 52q28 121 65 178t75 57zM1429 1728q0 -14 -9 -23.5t-23 -10.5l-252 -10q-13 -1 -24 8.5t-11 23.5t9 23.5t23 10.5l253 10q14 1 24 -9t10 -23z" />
    <glyph glyph-name="imacron" unicode="&#x12b;" horiz-adv-x="430" 
d="M39 199q0 144 18 287q2 14 12.5 24.5t27.5 10.5q15 0 25 -11.5t10 -26.5q0 -6 -2.5 -36t-6 -71.5t-6 -88t-2.5 -85.5q0 -53 10.5 -85.5t27 -50.5t35 -24t35.5 -6q28 0 58 20t61.5 56t63.5 86.5t63 112.5q5 10 14 15.5t20 5.5q16 0 26.5 -12t10.5 -26q0 -10 -4 -17
q-12 -23 -30 -56t-41 -68t-50.5 -69.5t-58.5 -62t-65 -44.5t-69 -17q-45 0 -79 19t-57.5 51t-35 75.5t-11.5 93.5zM268 682q0 -14 -9 -23.5t-23 -10.5l-252 -10q-13 -1 -24 8.5t-11 23.5t9 23.5t23 10.5l253 10q14 1 24 -9t10 -23z" />
    <glyph glyph-name="Ibreve" unicode="&#x12c;" horiz-adv-x="1300" 
d="M1270 1550q24 0 42 -21t18 -52q0 -42 -33.5 -93.5t-96.5 -107.5q-11 -56 -19 -127.5t-8 -162.5q0 -140 -9 -273t-34 -250t-70.5 -215t-119 -168.5t-178.5 -110t-249 -39.5q-120 0 -214 28t-159.5 77.5t-100 116t-34.5 144.5t33 144.5t89 116t130.5 77.5t158.5 28
q13 0 26.5 -0.5t24.5 -4t18.5 -12t7.5 -23.5q0 -16 -11.5 -26.5t-26.5 -10.5q-10 0 -19.5 0.5t-19.5 0.5q-68 0 -129 -22t-107 -61t-73 -92t-27 -115q0 -55 20 -98t54 -75.5t78.5 -55.5t93.5 -37t99.5 -20.5t96.5 -6.5q127 0 219 36t155.5 101t102.5 155.5t61 200t29.5 234
t8.5 257.5q1 64 5 125.5t11 111.5q-40 -21 -88 -41t-96.5 -41.5t-94.5 -46t-81.5 -54t-57 -66t-21.5 -81.5q0 -41 14 -71.5t35 -51.5t46 -34.5t46.5 -21t37 -11t17.5 -3.5q17 -5 23 -13.5t6 -20.5q0 -17 -10 -27.5t-25 -10.5q-2 0 -8.5 0.5t-8.5 1.5q-33 7 -76 24.5
t-81.5 49t-65 79.5t-26.5 117q0 61 30 108t78.5 84t108 66t118.5 54.5t111 49.5t85 52q28 121 65 178t75 57zM1411 1790q0 -29 -9.5 -56t-27.5 -48t-44.5 -33.5t-60.5 -12.5q-37 0 -64 15t-45 38t-26.5 49t-8.5 49q0 14 10 24t24 10q13 0 24 -10t11 -24t4.5 -29t14 -27.5
t23.5 -21t33 -8.5q29 0 51 19t22 63q0 14 10 25t26 11q14 0 23.5 -10t9.5 -23z" />
    <glyph glyph-name="ibreve" unicode="&#x12d;" horiz-adv-x="430" 
d="M39 199q0 144 18 287q2 14 12.5 24.5t27.5 10.5q15 0 25 -11.5t10 -26.5q0 -6 -2.5 -36t-6 -71.5t-6 -88t-2.5 -85.5q0 -53 10.5 -85.5t27 -50.5t35 -24t35.5 -6q28 0 58 20t61.5 56t63.5 86.5t63 112.5q5 10 14 15.5t20 5.5q16 0 26.5 -12t10.5 -26q0 -10 -4 -17
q-12 -23 -30 -56t-41 -68t-50.5 -69.5t-58.5 -62t-65 -44.5t-69 -17q-45 0 -79 19t-57.5 51t-35 75.5t-11.5 93.5zM258 744q0 -29 -9.5 -56t-27.5 -48t-44.5 -33.5t-60.5 -12.5q-37 0 -64 15t-45 38t-26.5 49t-8.5 49q0 14 10 24t24 10q13 0 24 -10t11 -24t4.5 -29t14 -27.5
t23.5 -21t33 -8.5q29 0 51 19t22 63q0 14 10 25t26 11q14 0 23.5 -10t9.5 -23z" />
    <glyph glyph-name="Iogonek" unicode="&#x12e;" horiz-adv-x="1300" 
d="M660 -269q0 -16 -9 -33t-24.5 -31.5t-37.5 -24t-48 -9.5q-30 0 -52 10t-36 25.5t-21 35.5t-7 40q0 27 8 53.5t20 50.5t26.5 45t27.5 37q-119 1 -212 29t-157.5 77.5t-98.5 116t-34 143.5q0 78 33 144.5t89 116t130.5 77.5t158.5 28q13 0 26.5 -0.5t24.5 -4t18.5 -12
t7.5 -23.5q0 -16 -11.5 -26.5t-26.5 -10.5q-10 0 -19.5 0.5t-19.5 0.5q-68 0 -129 -22t-107 -61t-73 -92t-27 -115q0 -55 20 -98t54 -75.5t78.5 -55.5t93.5 -37t99.5 -20.5t96.5 -6.5q127 0 219 36t155.5 101t102.5 155.5t61 200t29.5 234t8.5 257.5q1 64 5 125.5t11 111.5
q-40 -21 -88 -41t-96.5 -41.5t-94.5 -46t-81.5 -54t-57 -66t-21.5 -81.5q0 -41 14 -71.5t35 -51.5t46 -34.5t46.5 -21t37 -11t17.5 -3.5q17 -5 23 -13.5t6 -20.5q0 -17 -10 -27.5t-25 -10.5q-2 0 -8.5 0.5t-8.5 1.5q-33 7 -76 24.5t-81.5 49t-65 79.5t-26.5 117q0 61 30 108
t78.5 84t108 66t118.5 54.5t111 49.5t85 52q28 121 65 178t75 57q24 0 42 -21t18 -52q0 -42 -33.5 -93.5t-96.5 -107.5q-11 -56 -19 -127.5t-8 -162.5q0 -133 -8 -259.5t-30 -239.5t-62 -209.5t-104 -169t-156 -118t-217 -56.5q-2 -10 -14 -23l-14 -17t-30.5 -41.5t-30 -54
t-13.5 -54.5q0 -23 12.5 -34t32.5 -11q25 0 38 15.5t20 28.5q11 20 32 20q14 0 22.5 -9.5t8.5 -22.5z" />
    <glyph glyph-name="iogonek" unicode="&#x12f;" horiz-adv-x="430" 
d="M218 -209q0 -16 -9 -33t-24.5 -31.5t-37.5 -24t-48 -9.5q-30 0 -52 10t-36 25.5t-21 35.5t-7 40q0 37 14 72.5t32.5 65t36.5 50.5t26 29q-26 33 -39.5 78.5t-13.5 99.5q0 144 18 287q2 14 12.5 24.5t27.5 10.5q15 0 25 -11.5t10 -26.5q0 -6 -2.5 -36t-6 -71.5t-6 -88
t-2.5 -85.5q0 -53 10.5 -85.5t27 -50.5t35 -24t35.5 -6q28 0 58 20t61.5 56t63.5 86.5t63 112.5q5 10 14 15.5t20 5.5q16 0 26.5 -12t10.5 -26q0 -10 -4 -17q-12 -23 -30 -56t-41 -68t-50.5 -69.5t-58.5 -62t-65 -44.5t-69 -17q-22 0 -41 5t-36 13q-2 -4 -5 -7l-14 -17
t-30.5 -41.5t-30 -54t-13.5 -54.5q0 -23 12.5 -34t32.5 -11q25 0 38 15.5t20 28.5q11 20 32 20q14 0 22.5 -9.5t8.5 -22.5zM201 785q0 -38 -26.5 -64.5t-64.5 -26.5t-64.5 26.5t-26.5 64.5q0 19 7 35.5t19.5 29t29 19.5t35.5 7t35.5 -7t29 -19.5t19.5 -29t7 -35.5zM145 785
q0 14 -10.5 24.5t-24.5 10.5t-24 -10.5t-10 -24.5t10 -24t24 -10t24.5 10t10.5 24z" />
    <glyph glyph-name="Idotaccent" unicode="&#x130;" horiz-adv-x="1300" 
d="M1270 1550q24 0 42 -21t18 -52q0 -42 -33.5 -93.5t-96.5 -107.5q-11 -56 -19 -127.5t-8 -162.5q0 -140 -9 -273t-34 -250t-70.5 -215t-119 -168.5t-178.5 -110t-249 -39.5q-120 0 -214 28t-159.5 77.5t-100 116t-34.5 144.5t33 144.5t89 116t130.5 77.5t158.5 28
q13 0 26.5 -0.5t24.5 -4t18.5 -12t7.5 -23.5q0 -16 -11.5 -26.5t-26.5 -10.5q-10 0 -19.5 0.5t-19.5 0.5q-68 0 -129 -22t-107 -61t-73 -92t-27 -115q0 -55 20 -98t54 -75.5t78.5 -55.5t93.5 -37t99.5 -20.5t96.5 -6.5q127 0 219 36t155.5 101t102.5 155.5t61 200t29.5 234
t8.5 257.5q1 64 5 125.5t11 111.5q-40 -21 -88 -41t-96.5 -41.5t-94.5 -46t-81.5 -54t-57 -66t-21.5 -81.5q0 -41 14 -71.5t35 -51.5t46 -34.5t46.5 -21t37 -11t17.5 -3.5q17 -5 23 -13.5t6 -20.5q0 -17 -10 -27.5t-25 -10.5q-2 0 -8.5 0.5t-8.5 1.5q-33 7 -76 24.5
t-81.5 49t-65 79.5t-26.5 117q0 61 30 108t78.5 84t108 66t118.5 54.5t111 49.5t85 52q28 121 65 178t75 57zM1324 1720q0 -23 -16 -38.5t-39 -15.5t-38.5 15.5t-15.5 38.5t15.5 39t38.5 16t39 -16t16 -39z" />
    <glyph glyph-name="dotlessi" unicode="&#x131;" horiz-adv-x="430" 
d="M39 199q0 144 18 287q2 14 12.5 24.5t27.5 10.5q15 0 25 -11.5t10 -26.5q0 -6 -2.5 -36t-6 -71.5t-6 -88t-2.5 -85.5q0 -53 10.5 -85.5t27 -50.5t35 -24t35.5 -6q28 0 58 20t61.5 56t63.5 86.5t63 112.5q5 10 14 15.5t20 5.5q16 0 26.5 -12t10.5 -26q0 -10 -4 -17
q-12 -23 -30 -56t-41 -68t-50.5 -69.5t-58.5 -62t-65 -44.5t-69 -17q-45 0 -79 19t-57.5 51t-35 75.5t-11.5 93.5z" />
    <glyph glyph-name="IJ" unicode="&#x132;" horiz-adv-x="2457" 
d="M1270 1550q24 0 42 -21t18 -52q0 -42 -33.5 -93.5t-96.5 -107.5q-11 -56 -19 -127.5t-8 -162.5q0 -140 -9 -273t-34 -250t-70.5 -215t-119 -168.5t-178.5 -110t-249 -39.5q-120 0 -214 28t-159.5 77.5t-100 116t-34.5 144.5t33 144.5t89 116t130.5 77.5t158.5 28
q13 0 26.5 -0.5t24.5 -4t18.5 -12t7.5 -23.5q0 -16 -11.5 -26.5t-26.5 -10.5q-10 0 -19.5 0.5t-19.5 0.5q-68 0 -129 -22t-107 -61t-73 -92t-27 -115q0 -55 20 -98t54 -75.5t78.5 -55.5t93.5 -37t99.5 -20.5t96.5 -6.5q127 0 219 36t155.5 101t102.5 155.5t61 200t29.5 234
t8.5 257.5q1 64 5 125.5t11 111.5q-40 -21 -88 -41t-96.5 -41.5t-94.5 -46t-81.5 -54t-57 -66t-21.5 -81.5q0 -41 14 -71.5t35 -51.5t46 -34.5t46.5 -21t37 -11t17.5 -3.5q17 -5 23 -13.5t6 -20.5q0 -17 -10 -27.5t-25 -10.5q-2 0 -8.5 0.5t-8.5 1.5q-33 7 -76 24.5
t-81.5 49t-65 79.5t-26.5 117q0 61 30 108t78.5 84t108 66t118.5 54.5t111 49.5t85 52q28 121 65 178t75 57zM2316 1323q-29 -84 -49 -192.5t-20 -238.5q0 -92 6 -186t10 -202q24 13 42 13q14 0 25 -9.5t11 -24.5q0 -22 -20 -32.5t-57 -26.5v-87q0 -228 -26.5 -418.5
t-85.5 -328t-155.5 -214.5t-235.5 -77q-59 0 -116 22.5t-101.5 68.5t-72 114.5t-27.5 160.5q0 101 37.5 192.5t99 172t140.5 149t161.5 124.5t162.5 98t143 69q-2 103 -9 206.5t-7 212.5q0 102 12.5 196.5t34.5 176.5q-39 -22 -85.5 -41t-97.5 -36t-104.5 -33t-105.5 -31
q-79 -23 -143.5 -50.5t-110.5 -63.5t-71.5 -82t-25.5 -106q0 -70 27 -119t70.5 -79.5t98 -44t108.5 -13.5q16 0 26.5 -11t10.5 -27t-11.5 -26.5t-25.5 -10.5q-68 0 -135.5 19.5t-121.5 60t-88 102.5t-34 146q0 73 29.5 130.5t82.5 102.5t128 79t166 60q66 19 131 40
t123.5 43.5t107.5 47t84 51.5q40 112 86 172.5t88 60.5q9 0 19.5 -3.5t20 -11t15.5 -20.5t6 -32q0 -44 -46 -100t-125 -113zM2189 391q-58 -25 -130 -64t-146.5 -91t-145 -115t-126 -135.5t-89 -153t-33.5 -166.5q0 -73 21 -128t56.5 -92t81 -55.5t93.5 -18.5q83 0 146 38.5
t109.5 107t77.5 163t50 208t27 241t8 261.5z" />
    <glyph glyph-name="ij" unicode="&#x133;" horiz-adv-x="770" 
d="M544 -35q37 40 76 84.5t75 89t66 88t47 82.5q9 22 34 22q17 0 27.5 -11.5t10.5 -25.5q0 -8 -3 -15q-23 -52 -63 -108t-86.5 -111.5t-95 -108t-88.5 -97.5q1 -80 2.5 -157t1.5 -146q0 -275 -54 -408t-161 -133q-37 0 -68 16t-53 46t-34.5 74t-12.5 100q0 62 16.5 135.5
t53 155.5t94.5 169.5t140 177.5q-2 145 3 279q-23 -36 -51.5 -72.5t-60.5 -65.5t-67 -47t-71 -18q-45 0 -79 19t-57.5 51t-35 75.5t-11.5 93.5q0 144 18 287q2 14 12.5 24.5t27.5 10.5q15 0 25 -11.5t10 -26.5q0 -6 -2.5 -36t-6 -71.5t-6 -88t-2.5 -85.5q0 -53 10.5 -85.5
t27 -50.5t35 -24t35.5 -6q28 0 58 20t61.5 56t63.5 86.5t63 112.5q4 8 9 12q2 48 5 89t8 76q2 15 12.5 24t25.5 9t26 -11t11 -27q0 -6 -3.5 -39t-7.5 -97t-7.5 -158.5t-3.5 -223.5zM473 -443q0 51 -1 102t-2 111q-62 -75 -105.5 -148t-71.5 -140t-40.5 -127t-12.5 -109
q0 -28 4 -56.5t14.5 -52t28.5 -38t46 -14.5q12 0 26.5 5t30 21.5t30.5 47.5t27 83.5t19 129.5t7 185zM201 785q0 -38 -26.5 -64.5t-64.5 -26.5t-64.5 26.5t-26.5 64.5q0 19 7 35.5t19.5 29t29 19.5t35.5 7t35.5 -7t29 -19.5t19.5 -29t7 -35.5zM640 785q0 -38 -26.5 -64.5
t-64.5 -26.5t-64.5 26.5t-26.5 64.5q0 19 7 35.5t19.5 29t29 19.5t35.5 7t35.5 -7t29 -19.5t19.5 -29t7 -35.5zM145 785q0 14 -10.5 24.5t-24.5 10.5t-24 -10.5t-10 -24.5t10 -24t24 -10t24.5 10t10.5 24zM583 785q0 14 -10 24.5t-24 10.5t-24.5 -10.5t-10.5 -24.5t10.5 -24
t24.5 -10t24 10t10 24z" />
    <glyph glyph-name="Jcircumflex" unicode="&#x134;" horiz-adv-x="1157" 
d="M1016 1323q-29 -84 -49 -192.5t-20 -238.5q0 -92 6 -186t10 -202q24 13 42 13q14 0 25 -9.5t11 -24.5q0 -22 -20 -32.5t-57 -26.5v-87q0 -228 -26.5 -418.5t-85.5 -328t-155.5 -214.5t-235.5 -77q-59 0 -116 22.5t-101.5 68.5t-72 114.5t-27.5 160.5q0 101 37.5 192.5
t99 172t140.5 149t161.5 124.5t162.5 98t143 69q-2 103 -9 206.5t-7 212.5q0 102 12.5 196.5t34.5 176.5q-39 -22 -85.5 -41t-97.5 -36t-104.5 -33t-105.5 -31q-79 -23 -143.5 -50.5t-110.5 -63.5t-71.5 -82t-25.5 -106q0 -70 27 -119t70.5 -79.5t98 -44t108.5 -13.5
q16 0 26.5 -11t10.5 -27t-11.5 -26.5t-25.5 -10.5q-68 0 -135.5 19.5t-121.5 60t-88 102.5t-34 146q0 73 29.5 130.5t82.5 102.5t128 79t166 60q66 19 131 40t123.5 43.5t107.5 47t84 51.5q40 112 86 172.5t88 60.5q9 0 19.5 -3.5t20 -11t15.5 -20.5t6 -32q0 -44 -46 -100
t-125 -113zM889 391q-58 -25 -130 -64t-146.5 -91t-145 -115t-126 -135.5t-89 -153t-33.5 -166.5q0 -73 21 -128t56.5 -92t81 -55.5t93.5 -18.5q83 0 146 38.5t109.5 107t77.5 163t50 208t27 241t8 261.5zM1260 1739q6 -9 6 -19q0 -13 -9.5 -23t-23.5 -10q-17 0 -27 13
l-82 116l-84 -116q-10 -13 -26 -13q-14 0 -24 10t-10 23q0 12 7 20l112 152q10 13 27 13t26 -14z" />
    <glyph glyph-name="jcircumflex" unicode="&#x135;" horiz-adv-x="340" 
d="M114 -35q37 40 76 84.5t75 89t66 88t47 82.5q9 22 34 22q17 0 27.5 -11.5t10.5 -25.5q0 -8 -3 -15q-23 -52 -63 -108t-86.5 -111.5t-95 -108t-88.5 -97.5q1 -80 2.5 -157t1.5 -146q0 -275 -54 -408t-161 -133q-37 0 -68 16t-53 46t-34.5 74t-12.5 100q0 62 16.5 135.5
t53 155.5t94.5 169.5t140 177.5q0 86 1 171.5t3.5 164t7 147t10.5 121.5q2 15 12.5 24t25.5 9t26 -11t11 -27q0 -6 -3.5 -39t-7.5 -97t-7.5 -158.5t-3.5 -223.5zM43 -443q0 51 -1 102t-2 111q-62 -75 -105.5 -148t-71.5 -140t-40.5 -127t-12.5 -109q0 -28 4 -56.5t14.5 -52
t28.5 -38t46 -14.5q11 0 26 5t30.5 21.5t30.5 47.5t27 83.5t19 129.5t7 185zM235 636q6 -9 6 -19q0 -13 -9.5 -23t-23.5 -10q-17 0 -27 13l-82 116l-84 -116q-10 -13 -26 -13q-14 0 -24 10t-10 23q0 12 7 20l112 152q10 13 27 13t26 -14z" />
    <glyph glyph-name="dotlessj" unicode="&#x237;" horiz-adv-x="340" 
d="M114 -35q37 40 76 84.5t75 89t66 88t47 82.5q9 22 34 22q17 0 27.5 -11.5t10.5 -25.5q0 -8 -3 -15q-23 -52 -63 -108t-86.5 -111.5t-95 -108t-88.5 -97.5q1 -80 2.5 -157t1.5 -146q0 -275 -54 -408t-161 -133q-37 0 -68 16t-53 46t-34.5 74t-12.5 100q0 62 16.5 135.5
t53 155.5t94.5 169.5t140 177.5q0 86 1 171.5t3.5 164t7 147t10.5 121.5q2 15 12.5 24t25.5 9t26 -11t11 -27q0 -6 -3.5 -39t-7.5 -97t-7.5 -158.5t-3.5 -223.5zM43 -443q0 51 -1 102t-2 111q-62 -75 -105.5 -148t-71.5 -140t-40.5 -127t-12.5 -109q0 -28 4 -56.5t14.5 -52
t28.5 -38t46 -14.5q11 0 26 5t30.5 21.5t30.5 47.5t27 83.5t19 129.5t7 185z" />
    <glyph glyph-name="Kcommaaccent" unicode="&#x136;" horiz-adv-x="2363" 
d="M1047 1274q-15 -21 -28.5 -48.5t-24.5 -63.5t-18 -82.5t-9 -104.5q-2 -54 -3.5 -108t-4.5 -108q5 1 16 1q51 0 115 -15.5t132 -46.5q92 24 162.5 63t125 87.5t97 104t78.5 111.5t68 110.5t67 100.5q36 48 82.5 91t96 74.5t99.5 50t94 18.5q15 0 27.5 -9.5t12.5 -26.5
q0 -16 -10.5 -27t-26.5 -12q-30 -1 -70.5 -16t-83.5 -42t-85 -64t-76 -83q-39 -53 -72.5 -108t-68 -108.5t-73.5 -105t-89 -98t-114.5 -87.5t-149.5 -74q71 -45 137 -112.5t143 -150.5q64 -69 120.5 -130t110 -106.5t104 -71.5t102.5 -26q64 0 123 33.5t100 97.5
q11 17 32 17q17 0 27.5 -12t10.5 -26q0 -11 -6 -20q-51 -81 -127 -123.5t-159 -42.5q-64 0 -123 27.5t-118 76t-121 114t-132 141.5q-46 49 -86.5 92t-79 78.5t-77.5 64t-81 49.5q-54 -13 -104 -18t-92 -5q-20 0 -37 1t-31 4q-8 -88 -23.5 -169.5t-41.5 -153t-65.5 -130.5
t-96 -101t-133 -65.5t-176.5 -23.5q-57 0 -112.5 9.5t-107 28t-98 45t-83.5 60.5q-12 10 -12 28q0 15 11 26.5t26 11.5q16 0 26 -10q65 -59 157 -91.5t193 -32.5q127 0 211.5 43t136.5 121.5t78 188t37 243.5q-12 11 -17.5 23.5t-5.5 26.5q0 34 31 56q3 59 4.5 120.5
t3.5 126.5q2 103 22 173t44 118q-50 -2 -105 3.5t-112 12.5t-114 13.5t-111 6.5q-69 0 -130 -20t-106.5 -56.5t-71.5 -87.5t-26 -112q0 -53 22.5 -87t50.5 -54.5t51.5 -28.5t26.5 -9q13 -3 21 -13.5t8 -23.5q0 -17 -12 -27t-26 -10q-6 0 -9 1q-28 6 -64 24t-68 48.5t-54 75
t-22 104.5q0 78 32 142.5t87.5 111t130 72t158.5 25.5q65 0 132 -7t131 -14.5t122.5 -13t107.5 -1.5q19 24 46 47t57.5 40.5t62 28.5t61.5 11q32 0 55 -19.5t23 -49.5q0 -24 -21.5 -46t-58 -40t-85 -30t-101.5 -15zM1109 670q-9 3 -24 6.5t-33 6.5t-38 5t-39 2
q-5 0 -9.5 -0.5t-9.5 -1.5q-1 -5 -1 -10.5t-1 -10.5q15 -4 54 -4h19t28.5 1t30 2t23.5 4zM1238 1413q-10 0 -26.5 -5t-35 -14t-37.5 -20t-34 -23q26 2 53.5 12t48.5 21t30.5 20t0.5 9zM1263 -136q0 -55 -20 -108.5t-77 -95.5q-6 -4 -14.5 -7t-17.5 -3q-17 0 -26 9t-9 21
q0 19 16 31q39 29 56 64.5t17 85.5q0 16 9.5 27.5t26.5 11.5q15 0 26.5 -9.5t12.5 -26.5z" />
    <glyph glyph-name="kcommaaccent" unicode="&#x137;" horiz-adv-x="715" 
d="M290 123q17 -38 56 -60.5t88 -22.5q15 0 49 4.5t78.5 30t94.5 80.5t97 155q5 11 14 16.5t20 5.5q17 0 27.5 -12t10.5 -26q0 -6 -4 -16q-35 -73 -78 -130.5t-93 -98t-104.5 -62t-111.5 -21.5q-45 0 -84.5 14t-68 37.5t-45 53t-16.5 60.5q0 4 1 11t5.5 15.5t13 16
t23.5 12.5q41 12 75.5 29.5t59.5 39.5t39 48.5t14 57.5q0 27 -18 44t-44 17q-27 0 -53 -18.5t-50.5 -49t-46.5 -70t-40.5 -82.5t-32.5 -85.5t-23 -78.5q-3 -11 -6.5 -24t-10.5 -24.5t-17 -19t-26 -7.5q-15 0 -29 12.5t-14 42.5q0 6 0.5 46t1.5 104.5t2.5 148t2.5 177
t3 192.5t3 193t2.5 178.5t2.5 150t1.5 107t0.5 49.5q0 16 12 26.5t26 10.5q16 0 27 -10.5t11 -27.5q0 -2 -0.5 -39.5t-1.5 -100.5t-2.5 -147t-3 -178.5t-3 -194.5t-3 -195t-2.5 -181t-2 -152q16 51 41 107.5t59 104.5t76.5 79t94.5 31q29 0 54 -10.5t43.5 -29t29 -43.5
t10.5 -54q0 -45 -20 -82.5t-53 -67t-75.5 -51.5t-87.5 -36zM330 -185q0 -55 -20 -108.5t-77 -95.5q-6 -4 -14.5 -7t-17.5 -3q-17 0 -26 9t-9 21q0 19 16 31q39 29 56 64.5t17 85.5q0 16 9.5 27.5t26.5 11.5q15 0 26.5 -9.5t12.5 -26.5z" />
    <glyph glyph-name="kgreenlandic" unicode="&#x138;" horiz-adv-x="715" 
d="M290 123q17 -38 56 -60.5t88 -22.5q15 0 49 4.5t78.5 30t94.5 80.5t97 155q5 11 14 16.5t20 5.5q17 0 27.5 -12t10.5 -26q0 -6 -4 -16q-35 -73 -78 -130.5t-93 -98t-104.5 -62t-111.5 -21.5q-45 0 -84.5 14t-68 37.5t-45 53t-16.5 60.5q0 4 1 11t5.5 15.5t13 16
t23.5 12.5q41 12 75.5 29.5t59.5 39.5t39 48.5t14 57.5q0 27 -18 44t-44 17q-27 0 -53 -18.5t-50.5 -49t-46.5 -70t-40.5 -82.5t-32.5 -85.5t-23 -78.5q-3 -11 -6.5 -24t-10.5 -24.5t-17 -19t-26 -7.5q-15 0 -29 12.5t-14 42.5q0 10 0.5 43t1.5 77.5t2 95.5t2 97t1.5 81
t0.5 48q0 16 12 26.5t26 10.5q16 0 27 -10.5t11 -27.5q0 -4 -0.5 -27t-1 -61t-2 -88.5t-2.5 -107.5q16 51 41 107.5t59 104.5t76.5 79t94.5 31q29 0 54 -10.5t43.5 -29t29 -43.5t10.5 -54q0 -45 -20 -82.5t-53 -67t-75.5 -51.5t-87.5 -36z" />
    <glyph glyph-name="Lacute" unicode="&#x139;" horiz-adv-x="1846" 
d="M1800 163q-1 -2 -12 -17t-31.5 -36.5t-51 -46t-72 -45t-93.5 -34.5t-115 -14q-98 0 -184 24.5t-165.5 62.5t-156.5 84t-157 90q-49 -82 -112.5 -133.5t-132 -80.5t-136 -39.5t-124.5 -10.5q-55 0 -111.5 11.5t-102 38t-74.5 69.5t-29 107q0 60 27.5 108.5t76 82.5
t114.5 52.5t142 18.5q57 0 113.5 -10t110.5 -27t105 -38.5t96 -43.5q6 18 10.5 36t8 39.5t5 48t1.5 61.5q0 33 -1.5 63t-3 65.5t-3 80t-1.5 106.5q0 143 28 260.5t83 201.5t137 130.5t191 46.5q66 0 125.5 -21t105 -60t72 -93t26.5 -120q0 -36 -10 -75t-27.5 -71.5
t-40 -53.5t-47.5 -21q-14 0 -25 8t-11 25q0 12 5.5 20.5t13.5 15.5q29 26 47.5 64t18.5 88t-20.5 90.5t-55 69t-80 44t-95.5 15.5q-94 0 -163 -41t-114 -115.5t-66.5 -180t-21.5 -234.5q0 -62 1.5 -109t3 -86t3 -73.5t1.5 -70.5q0 -21 -2 -45.5t-6 -50t-10.5 -50
t-14.5 -44.5q76 -40 150 -85t150.5 -82.5t158 -62t172.5 -24.5q80 0 138.5 24t97 53.5t57.5 54t19 25.5q11 18 32 18q17 0 27.5 -12t10.5 -26q0 -11 -6 -20zM696 268q-43 21 -90.5 41.5t-97.5 36.5t-102.5 25.5t-104.5 9.5q-59 0 -111 -12.5t-91 -36.5t-61.5 -58t-22.5 -77
q0 -40 20 -69.5t53.5 -49t77.5 -29t92 -9.5q58 0 120 9.5t120 35t109 70t89 113.5zM1133 1612l160 152q10 9 23 9t23 -10t10 -24t-10 -23l-160 -152q-11 -9 -23 -9q-14 0 -23.5 10t-9.5 23q0 14 10 24z" />
    <glyph glyph-name="lacute" unicode="&#x13a;" horiz-adv-x="501" 
d="M607 277q-11 -23 -27.5 -54.5t-37.5 -65.5t-47 -67.5t-56.5 -60t-65 -43t-73.5 -16.5q-60 0 -103 37t-73 97t-48.5 136.5t-28.5 156t-13.5 154.5t-3.5 133q0 84 5.5 174t17.5 176t30.5 163t44 135t58.5 92t75 34q33 0 59.5 -15.5t44.5 -50.5t28 -91t10 -137
q0 -100 -21 -206.5t-57 -214.5t-85 -215.5t-105 -209.5q25 -127 67 -199.5t101 -72.5q40 0 77 31.5t68 74.5t54.5 87.5t36.5 71.5q5 10 14 15.5t20 5.5q17 0 27.5 -12t10.5 -27q0 -6 -4 -16zM106 679q0 -64 3 -123t8 -113q42 81 80 172.5t67 185t46.5 186t17.5 176.5
q0 118 -19 169t-51 51q-21 0 -40.5 -29t-36.5 -79t-31 -118t-23.5 -146t-15 -163t-5.5 -169zM217 1601l160 152q10 9 23 9t23 -10t10 -24t-10 -23l-160 -152q-11 -9 -23 -9q-14 0 -23.5 10t-9.5 23q0 14 10 24z" />
    <glyph glyph-name="Lcommaaccent" unicode="&#x13b;" horiz-adv-x="1846" 
d="M1800 163q-1 -2 -12 -17t-31.5 -36.5t-51 -46t-72 -45t-93.5 -34.5t-115 -14q-98 0 -184 24.5t-165.5 62.5t-156.5 84t-157 90q-49 -82 -112.5 -133.5t-132 -80.5t-136 -39.5t-124.5 -10.5q-55 0 -111.5 11.5t-102 38t-74.5 69.5t-29 107q0 60 27.5 108.5t76 82.5
t114.5 52.5t142 18.5q57 0 113.5 -10t110.5 -27t105 -38.5t96 -43.5q6 18 10.5 36t8 39.5t5 48t1.5 61.5q0 33 -1.5 63t-3 65.5t-3 80t-1.5 106.5q0 143 28 260.5t83 201.5t137 130.5t191 46.5q66 0 125.5 -21t105 -60t72 -93t26.5 -120q0 -36 -10 -75t-27.5 -71.5
t-40 -53.5t-47.5 -21q-14 0 -25 8t-11 25q0 12 5.5 20.5t13.5 15.5q29 26 47.5 64t18.5 88t-20.5 90.5t-55 69t-80 44t-95.5 15.5q-94 0 -163 -41t-114 -115.5t-66.5 -180t-21.5 -234.5q0 -62 1.5 -109t3 -86t3 -73.5t1.5 -70.5q0 -21 -2 -45.5t-6 -50t-10.5 -50
t-14.5 -44.5q76 -40 150 -85t150.5 -82.5t158 -62t172.5 -24.5q80 0 138.5 24t97 53.5t57.5 54t19 25.5q11 18 32 18q17 0 27.5 -12t10.5 -26q0 -11 -6 -20zM696 268q-43 21 -90.5 41.5t-97.5 36.5t-102.5 25.5t-104.5 9.5q-59 0 -111 -12.5t-91 -36.5t-61.5 -58t-22.5 -77
q0 -40 20 -69.5t53.5 -49t77.5 -29t92 -9.5q58 0 120 9.5t120 35t109 70t89 113.5zM1005 -136q0 -55 -20 -108.5t-77 -95.5q-6 -4 -14.5 -7t-17.5 -3q-17 0 -26 9t-9 21q0 19 16 31q39 29 56 64.5t17 85.5q0 16 9.5 27.5t26.5 11.5q15 0 26.5 -9.5t12.5 -26.5z" />
    <glyph glyph-name="lcommaaccent" unicode="&#x13c;" horiz-adv-x="501" 
d="M607 277q-11 -23 -27.5 -54.5t-37.5 -65.5t-47 -67.5t-56.5 -60t-65 -43t-73.5 -16.5q-60 0 -103 37t-73 97t-48.5 136.5t-28.5 156t-13.5 154.5t-3.5 133q0 84 5.5 174t17.5 176t30.5 163t44 135t58.5 92t75 34q33 0 59.5 -15.5t44.5 -50.5t28 -91t10 -137
q0 -100 -21 -206.5t-57 -214.5t-85 -215.5t-105 -209.5q25 -127 67 -199.5t101 -72.5q40 0 77 31.5t68 74.5t54.5 87.5t36.5 71.5q5 10 14 15.5t20 5.5q17 0 27.5 -12t10.5 -27q0 -6 -4 -16zM106 679q0 -64 3 -123t8 -113q42 81 80 172.5t67 185t46.5 186t17.5 176.5
q0 118 -19 169t-51 51q-21 0 -40.5 -29t-36.5 -79t-31 -118t-23.5 -146t-15 -163t-5.5 -169zM133 -175q0 -55 -20 -108.5t-77 -95.5q-6 -4 -14.5 -7t-17.5 -3q-17 0 -26 9t-9 21q0 19 16 31q39 29 56 64.5t17 85.5q0 16 9.5 27.5t26.5 11.5q15 0 26.5 -9.5t12.5 -26.5z" />
    <glyph glyph-name="Lcaron" unicode="&#x13d;" horiz-adv-x="1846" 
d="M1800 163q-1 -2 -12 -17t-31.5 -36.5t-51 -46t-72 -45t-93.5 -34.5t-115 -14q-98 0 -184 24.5t-165.5 62.5t-156.5 84t-157 90q-49 -82 -112.5 -133.5t-132 -80.5t-136 -39.5t-124.5 -10.5q-55 0 -111.5 11.5t-102 38t-74.5 69.5t-29 107q0 60 27.5 108.5t76 82.5
t114.5 52.5t142 18.5q57 0 113.5 -10t110.5 -27t105 -38.5t96 -43.5q6 18 10.5 36t8 39.5t5 48t1.5 61.5q0 33 -1.5 63t-3 65.5t-3 80t-1.5 106.5q0 143 28 260.5t83 201.5t137 130.5t191 46.5q66 0 125.5 -21t105 -60t72 -93t26.5 -120q0 -36 -10 -75t-27.5 -71.5
t-40 -53.5t-47.5 -21q-14 0 -25 8t-11 25q0 12 5.5 20.5t13.5 15.5q29 26 47.5 64t18.5 88t-20.5 90.5t-55 69t-80 44t-95.5 15.5q-94 0 -163 -41t-114 -115.5t-66.5 -180t-21.5 -234.5q0 -62 1.5 -109t3 -86t3 -73.5t1.5 -70.5q0 -21 -2 -45.5t-6 -50t-10.5 -50
t-14.5 -44.5q76 -40 150 -85t150.5 -82.5t158 -62t172.5 -24.5q80 0 138.5 24t97 53.5t57.5 54t19 25.5q11 18 32 18q17 0 27.5 -12t10.5 -26q0 -11 -6 -20zM696 268q-43 21 -90.5 41.5t-97.5 36.5t-102.5 25.5t-104.5 9.5q-59 0 -111 -12.5t-91 -36.5t-61.5 -58t-22.5 -77
q0 -40 20 -69.5t53.5 -49t77.5 -29t92 -9.5q58 0 120 9.5t120 35t109 70t89 113.5zM1771 1364q6 -153 -100 -261q-13 -11 -27 -11q-16 0 -27 11t-11 26.5t11 26.5q83 85 79 205q-1 16 9.5 27.5t26.5 11.5q15 0 26.5 -10t12.5 -26z" />
    <glyph glyph-name="lcaron" unicode="&#x13e;" horiz-adv-x="664" 
d="M607 277q-11 -23 -27.5 -54.5t-37.5 -65.5t-47 -67.5t-56.5 -60t-65 -43t-73.5 -16.5q-60 0 -103 37t-73 97t-48.5 136.5t-28.5 156t-13.5 154.5t-3.5 133q0 84 5.5 174t17.5 176t30.5 163t44 135t58.5 92t75 34q33 0 59.5 -15.5t44.5 -50.5t28 -91t10 -137
q0 -100 -21 -206.5t-57 -214.5t-85 -215.5t-105 -209.5q25 -127 67 -199.5t101 -72.5q40 0 77 31.5t68 74.5t54.5 87.5t36.5 71.5q5 10 14 15.5t20 5.5q17 0 27.5 -12t10.5 -27q0 -6 -4 -16zM106 679q0 -64 3 -123t8 -113q42 81 80 172.5t67 185t46.5 186t17.5 176.5
q0 118 -19 169t-51 51q-21 0 -40.5 -29t-36.5 -79t-31 -118t-23.5 -146t-15 -163t-5.5 -169zM633 1364q6 -153 -100 -261q-13 -11 -27 -11q-16 0 -27 11t-11 26.5t11 26.5q83 85 79 205q-1 16 9.5 27.5t26.5 11.5q15 0 26.5 -10t12.5 -26z" />
    <glyph glyph-name="Ldot" unicode="&#x13f;" horiz-adv-x="1846" 
d="M1800 163q-1 -2 -12 -17t-31.5 -36.5t-51 -46t-72 -45t-93.5 -34.5t-115 -14q-98 0 -184 24.5t-165.5 62.5t-156.5 84t-157 90q-49 -82 -112.5 -133.5t-132 -80.5t-136 -39.5t-124.5 -10.5q-55 0 -111.5 11.5t-102 38t-74.5 69.5t-29 107q0 60 27.5 108.5t76 82.5
t114.5 52.5t142 18.5q57 0 113.5 -10t110.5 -27t105 -38.5t96 -43.5q6 18 10.5 36t8 39.5t5 48t1.5 61.5q0 33 -1.5 63t-3 65.5t-3 80t-1.5 106.5q0 143 28 260.5t83 201.5t137 130.5t191 46.5q66 0 125.5 -21t105 -60t72 -93t26.5 -120q0 -36 -10 -75t-27.5 -71.5
t-40 -53.5t-47.5 -21q-14 0 -25 8t-11 25q0 12 5.5 20.5t13.5 15.5q29 26 47.5 64t18.5 88t-20.5 90.5t-55 69t-80 44t-95.5 15.5q-94 0 -163 -41t-114 -115.5t-66.5 -180t-21.5 -234.5q0 -62 1.5 -109t3 -86t3 -73.5t1.5 -70.5q0 -21 -2 -45.5t-6 -50t-10.5 -50
t-14.5 -44.5q76 -40 150 -85t150.5 -82.5t158 -62t172.5 -24.5q80 0 138.5 24t97 53.5t57.5 54t19 25.5q11 18 32 18q17 0 27.5 -12t10.5 -26q0 -11 -6 -20zM696 268q-43 21 -90.5 41.5t-97.5 36.5t-102.5 25.5t-104.5 9.5q-59 0 -111 -12.5t-91 -36.5t-61.5 -58t-22.5 -77
q0 -40 20 -69.5t53.5 -49t77.5 -29t92 -9.5q58 0 120 9.5t120 35t109 70t89 113.5zM1387 600q0 -23 -15.5 -38.5t-38.5 -15.5t-38.5 15.5t-15.5 38.5q0 22 15.5 37.5t38.5 15.5t38.5 -15.5t15.5 -37.5z" />
    <glyph glyph-name="ldotaccent" unicode="&#x140;" horiz-adv-x="656" 
d="M607 277q-11 -23 -27.5 -54.5t-37.5 -65.5t-47 -67.5t-56.5 -60t-65 -43t-73.5 -16.5q-60 0 -103 37t-73 97t-48.5 136.5t-28.5 156t-13.5 154.5t-3.5 133q0 84 5.5 174t17.5 176t30.5 163t44 135t58.5 92t75 34q33 0 59.5 -15.5t44.5 -50.5t28 -91t10 -137
q0 -100 -21 -206.5t-57 -214.5t-85 -215.5t-105 -209.5q25 -127 67 -199.5t101 -72.5q40 0 77 31.5t68 74.5t54.5 87.5t36.5 71.5q5 10 14 15.5t20 5.5q17 0 27.5 -12t10.5 -27q0 -6 -4 -16zM106 679q0 -64 3 -123t8 -113q42 81 80 172.5t67 185t46.5 186t17.5 176.5
q0 118 -19 169t-51 51q-21 0 -40.5 -29t-36.5 -79t-31 -118t-23.5 -146t-15 -163t-5.5 -169zM559 699q0 -23 -15.5 -38.5t-38.5 -15.5t-38.5 15.5t-15.5 38.5q0 22 15.5 37.5t38.5 15.5t38.5 -15.5t15.5 -37.5z" />
    <glyph glyph-name="Lslash" unicode="&#x141;" horiz-adv-x="1846" 
d="M1800 163q-1 -2 -12 -17t-31.5 -36.5t-51 -46t-72 -45t-93.5 -34.5t-115 -14q-98 0 -184 24.5t-165.5 62.5t-156.5 84t-157 90q-49 -82 -112.5 -133.5t-132 -80.5t-136 -39.5t-124.5 -10.5q-55 0 -111.5 11.5t-102 38t-74.5 69.5t-29 107q0 60 27.5 108.5t76 82.5
t114.5 52.5t142 18.5q57 0 113.5 -10t110.5 -27t105 -38.5t96 -43.5q6 18 10.5 36t8 39.5t5 48t1.5 61.5q0 25 -0.5 47.5t-2.5 47.5l-213 -75q-3 -1 -7.5 -2t-7.5 -1q-15 0 -26 11t-11 27q0 11 6 21t17 14l238 84q-1 29 -1.5 63t-0.5 78q0 143 28 260.5t83 201.5t137 130.5
t191 46.5q66 0 125.5 -21t105 -60t72 -93t26.5 -120q0 -36 -10 -75t-27.5 -71.5t-40 -53.5t-47.5 -21q-14 0 -25 8t-11 25q0 12 5.5 20.5t13.5 15.5q29 26 47.5 64t18.5 88t-20.5 90.5t-55 69t-80 44t-95.5 15.5q-94 0 -163 -41t-114 -115.5t-66.5 -180t-21.5 -234.5v-57.5
t1 -49.5l272 96q8 2 13 2q15 0 26.5 -10t11.5 -27q0 -11 -6 -21t-17 -14l-297 -106q2 -42 3.5 -78t1.5 -74q0 -21 -2 -45.5t-6 -50t-10.5 -50t-14.5 -44.5q76 -40 150 -85t150.5 -82.5t158 -62t172.5 -24.5q80 0 138.5 24t97 53.5t57.5 54t19 25.5q11 18 32 18
q17 0 27.5 -12t10.5 -26q0 -11 -6 -20zM696 268q-43 21 -90.5 41.5t-97.5 36.5t-102.5 25.5t-104.5 9.5q-59 0 -111 -12.5t-91 -36.5t-61.5 -58t-22.5 -77q0 -40 20 -69.5t53.5 -49t77.5 -29t92 -9.5q58 0 120 9.5t120 35t109 70t89 113.5z" />
    <glyph glyph-name="lslash" unicode="&#x142;" horiz-adv-x="501" 
d="M607 277q-11 -23 -27.5 -54.5t-37.5 -65.5t-47 -67.5t-56.5 -60t-65 -43t-73.5 -16.5q-48 0 -85.5 24t-65.5 65t-48 96t-33.5 116.5t-21 125.5t-11.5 125l-144 -51q-2 -2 -7 -2.5t-8 -0.5q-15 0 -26 11t-11 27q0 11 6 21t17 14l169 60q-1 23 -1 43.5v39.5q0 84 5.5 174
t17.5 176t30.5 163t44 135t58.5 92t75 34q33 0 59.5 -15.5t44.5 -50.5t28 -91t10 -137q0 -111 -25 -228t-68 -237l137 49q8 2 13 2q15 0 26.5 -10t11.5 -27q0 -11 -6 -21t-17 -14l-201 -71q-30 -75 -65.5 -147t-73.5 -142q25 -127 67 -199.5t101 -72.5q40 0 77 31.5t68 74.5
t54.5 87.5t36.5 71.5q5 10 14 15.5t20 5.5q17 0 27.5 -12t10.5 -27q0 -6 -4 -16zM106 627l111 39q48 126 79.5 254t31.5 243q0 118 -19 169t-51 51q-21 0 -40.5 -29t-36.5 -79t-31 -118t-23.5 -146t-15 -163t-5.5 -169v-52zM109 548q2 -28 4 -54t4 -51q32 62 62 130z" />
    <glyph glyph-name="Ntilde" unicode="&#xd1;" horiz-adv-x="2310" 
d="M2660 1504q-2 -15 -13 -24t-25 -9q-2 0 -7 0.5t-23 0.5q-19 0 -48.5 -4t-65 -16.5t-74 -36.5t-75.5 -64.5t-70 -100t-56 -143.5q-12 -42 -27.5 -120.5t-33 -176.5t-35 -209t-33 -218t-28.5 -203.5t-20 -165.5q-2 -13 -11.5 -23.5t-23.5 -10.5t-24.5 7t-14.5 21
q-13 48 -41 133t-64.5 191.5t-79.5 226.5t-85.5 237.5t-82 225t-69.5 189.5q-5 -56 -15.5 -124.5t-28 -147t-43.5 -166t-62 -181.5q-56 -144 -131.5 -246t-158.5 -170t-168.5 -107.5t-160.5 -59.5t-135 -25.5t-92 -5.5q-110 0 -202.5 29t-160 82.5t-105 128t-37.5 164.5
q0 81 36.5 151.5t98 122.5t141 82t165.5 30q71 0 127.5 -14t100 -35.5t75 -46.5t52 -47.5t31 -38.5t12.5 -19q4 -8 4 -18q0 -14 -10.5 -26t-27.5 -12q-22 0 -33 20q-1 3 -19.5 28.5t-57 55.5t-99.5 54.5t-148 24.5q-71 0 -138.5 -24t-119.5 -66t-83.5 -99.5t-31.5 -124.5
q0 -73 34 -133.5t92.5 -103.5t136 -66.5t165.5 -23.5q34 0 90 5t125.5 23t146.5 54.5t152 99.5t143.5 157t120.5 228q54 138 84.5 262.5t45.5 224.5t18.5 170.5t3.5 100.5v20q0 16 10.5 27.5t27.5 11.5q25 0 35 -25q3 -7 17.5 -47t38 -103.5t54 -146.5t64.5 -176.5
t70 -193.5t70.5 -197t65.5 -187t56 -164q11 80 24 169.5t27.5 181t29 179.5t29 165t26.5 138t22 98q22 88 63 164.5t99.5 133.5t134 89.5t167.5 32.5q35 0 50.5 -8t15.5 -31v-5v0zM2095 1612q0 -18 -7.5 -34t-20.5 -28t-31.5 -19t-40.5 -7q-20 0 -35 6t-26.5 16t-19.5 21
t-15 22q-9 14 -17.5 24t-20.5 10q-9 0 -14.5 -3.5t-7.5 -7.5t-2.5 -8.5t-0.5 -5.5q0 -10 2.5 -17.5t6.5 -15.5q2 -4 3 -8t1 -9q0 -13 -10 -22.5t-26 -9.5q-8 0 -17 3.5t-16 12.5t-11.5 25t-4.5 41q0 16 6.5 32.5t18.5 29t30 20.5t42 8q21 0 36 -6.5t27 -16t20.5 -21.5
t15.5 -22q10 -14 18.5 -24t20.5 -10q16 0 20 8.5t4 13.5q0 12 -4 22.5t-8 19.5q-7 12 -7 20q0 12 10 22t26 10q19 0 37 -23t18 -69z" />
    <glyph glyph-name="ntilde" unicode="&#xf1;" horiz-adv-x="911" 
d="M260 90q16 33 37 72.5t45 80t50.5 80.5t55.5 76q29 35 58.5 50.5t55.5 15.5q52 0 77 -38t25 -94q0 -13 -1.5 -31.5t-3 -39.5t-3 -42.5t-1.5 -40.5q0 -24 2.5 -46t9.5 -38.5t20 -26t34 -9.5q38 0 74 29.5t66.5 70t53 82.5t33.5 68q5 11 14.5 17t20.5 6q17 0 27.5 -12.5
t10.5 -26.5q0 -7 -3 -14q-4 -8 -16 -33t-31.5 -57.5t-45.5 -69t-57.5 -66.5t-68 -50t-76.5 -20q-45 0 -73 17.5t-44 46t-21.5 63t-5.5 69.5q0 15 1.5 34t4 40t4 42t1.5 40q0 32 -10 43.5t-18 11.5q-16 0 -36.5 -18.5t-43 -48.5t-46 -67.5t-44 -74.5t-38 -70.5t-27.5 -55.5
q-20 -42 -40 -56.5t-41 -14.5q-29 0 -46.5 17.5t-17.5 49.5q0 7 2 27.5t5 49t6 61.5t6 65.5t5 60.5t2 47q0 25 -2 48t-8 28q-9 -3 -32 -37.5t-59 -121.5q-5 -11 -15 -17t-21 -6q-17 0 -27 11.5t-10 26.5q0 7 3 15q45 107 84.5 157.5t78.5 50.5q23 0 39 -11.5t25.5 -30.5
t14 -42t4.5 -47q0 -18 -2.5 -56t-6.5 -81.5t-7.5 -86.5t-6.5 -72zM582 714q0 -18 -7.5 -34t-20.5 -28t-31.5 -19t-40.5 -7q-20 0 -35 6t-26.5 16t-19.5 21t-15 22q-9 14 -17.5 24t-20.5 10q-9 0 -14.5 -3.5t-7.5 -7.5t-2.5 -8.5t-0.5 -5.5q0 -10 2.5 -17.5t6.5 -15.5
q2 -4 3 -8t1 -9q0 -13 -10 -22.5t-26 -9.5q-8 0 -17 3.5t-16 12.5t-11.5 25t-4.5 41q0 16 6.5 32.5t18.5 29t30 20.5t42 8q21 0 36 -6.5t27 -16t20.5 -21.5t15.5 -22q10 -14 18.5 -24t20.5 -10q16 0 20 8.5t4 13.5q0 12 -4 22.5t-8 19.5q-7 12 -7 20q0 12 10 22t26 10
q19 0 37 -23t18 -69z" />
    <glyph glyph-name="Nacute" unicode="&#x143;" horiz-adv-x="2310" 
d="M2660 1504q-2 -15 -13 -24t-25 -9q-2 0 -7 0.5t-23 0.5q-19 0 -48.5 -4t-65 -16.5t-74 -36.5t-75.5 -64.5t-70 -100t-56 -143.5q-12 -42 -27.5 -120.5t-33 -176.5t-35 -209t-33 -218t-28.5 -203.5t-20 -165.5q-2 -13 -11.5 -23.5t-23.5 -10.5t-24.5 7t-14.5 21
q-13 48 -41 133t-64.5 191.5t-79.5 226.5t-85.5 237.5t-82 225t-69.5 189.5q-5 -56 -15.5 -124.5t-28 -147t-43.5 -166t-62 -181.5q-56 -144 -131.5 -246t-158.5 -170t-168.5 -107.5t-160.5 -59.5t-135 -25.5t-92 -5.5q-110 0 -202.5 29t-160 82.5t-105 128t-37.5 164.5
q0 81 36.5 151.5t98 122.5t141 82t165.5 30q71 0 127.5 -14t100 -35.5t75 -46.5t52 -47.5t31 -38.5t12.5 -19q4 -8 4 -18q0 -14 -10.5 -26t-27.5 -12q-22 0 -33 20q-1 3 -19.5 28.5t-57 55.5t-99.5 54.5t-148 24.5q-71 0 -138.5 -24t-119.5 -66t-83.5 -99.5t-31.5 -124.5
q0 -73 34 -133.5t92.5 -103.5t136 -66.5t165.5 -23.5q34 0 90 5t125.5 23t146.5 54.5t152 99.5t143.5 157t120.5 228q54 138 84.5 262.5t45.5 224.5t18.5 170.5t3.5 100.5v20q0 16 10.5 27.5t27.5 11.5q25 0 35 -25q3 -7 17.5 -47t38 -103.5t54 -146.5t64.5 -176.5
t70 -193.5t70.5 -197t65.5 -187t56 -164q11 80 24 169.5t27.5 181t29 179.5t29 165t26.5 138t22 98q22 88 63 164.5t99.5 133.5t134 89.5t167.5 32.5q35 0 50.5 -8t15.5 -31v-5v0zM1871 1567l160 152q10 9 23 9t23 -10t10 -24t-10 -23l-160 -152q-11 -9 -23 -9
q-14 0 -23.5 10t-9.5 23q0 14 10 24z" />
    <glyph glyph-name="nacute" unicode="&#x144;" horiz-adv-x="911" 
d="M260 90q16 33 37 72.5t45 80t50.5 80.5t55.5 76q29 35 58.5 50.5t55.5 15.5q52 0 77 -38t25 -94q0 -13 -1.5 -31.5t-3 -39.5t-3 -42.5t-1.5 -40.5q0 -24 2.5 -46t9.5 -38.5t20 -26t34 -9.5q38 0 74 29.5t66.5 70t53 82.5t33.5 68q5 11 14.5 17t20.5 6q17 0 27.5 -12.5
t10.5 -26.5q0 -7 -3 -14q-4 -8 -16 -33t-31.5 -57.5t-45.5 -69t-57.5 -66.5t-68 -50t-76.5 -20q-45 0 -73 17.5t-44 46t-21.5 63t-5.5 69.5q0 15 1.5 34t4 40t4 42t1.5 40q0 32 -10 43.5t-18 11.5q-16 0 -36.5 -18.5t-43 -48.5t-46 -67.5t-44 -74.5t-38 -70.5t-27.5 -55.5
q-20 -42 -40 -56.5t-41 -14.5q-29 0 -46.5 17.5t-17.5 49.5q0 7 2 27.5t5 49t6 61.5t6 65.5t5 60.5t2 47q0 25 -2 48t-8 28q-9 -3 -32 -37.5t-59 -121.5q-5 -11 -15 -17t-21 -6q-17 0 -27 11.5t-10 26.5q0 7 3 15q45 107 84.5 157.5t78.5 50.5q23 0 39 -11.5t25.5 -30.5
t14 -42t4.5 -47q0 -18 -2.5 -56t-6.5 -81.5t-7.5 -86.5t-6.5 -72zM358 669l160 152q10 9 23 9t23 -10t10 -24t-10 -23l-160 -152q-11 -9 -23 -9q-14 0 -23.5 10t-9.5 23q0 14 10 24z" />
    <glyph glyph-name="Ncommaaccent" unicode="&#x145;" horiz-adv-x="2310" 
d="M2660 1504q-2 -15 -13 -24t-25 -9q-2 0 -7 0.5t-23 0.5q-19 0 -48.5 -4t-65 -16.5t-74 -36.5t-75.5 -64.5t-70 -100t-56 -143.5q-12 -42 -27.5 -120.5t-33 -176.5t-35 -209t-33 -218t-28.5 -203.5t-20 -165.5q-2 -13 -11.5 -23.5t-23.5 -10.5t-24.5 7t-14.5 21
q-13 48 -41 133t-64.5 191.5t-79.5 226.5t-85.5 237.5t-82 225t-69.5 189.5q-5 -56 -15.5 -124.5t-28 -147t-43.5 -166t-62 -181.5q-56 -144 -131.5 -246t-158.5 -170t-168.5 -107.5t-160.5 -59.5t-135 -25.5t-92 -5.5q-110 0 -202.5 29t-160 82.5t-105 128t-37.5 164.5
q0 81 36.5 151.5t98 122.5t141 82t165.5 30q71 0 127.5 -14t100 -35.5t75 -46.5t52 -47.5t31 -38.5t12.5 -19q4 -8 4 -18q0 -14 -10.5 -26t-27.5 -12q-22 0 -33 20q-1 3 -19.5 28.5t-57 55.5t-99.5 54.5t-148 24.5q-71 0 -138.5 -24t-119.5 -66t-83.5 -99.5t-31.5 -124.5
q0 -73 34 -133.5t92.5 -103.5t136 -66.5t165.5 -23.5q34 0 90 5t125.5 23t146.5 54.5t152 99.5t143.5 157t120.5 228q54 138 84.5 262.5t45.5 224.5t18.5 170.5t3.5 100.5v20q0 16 10.5 27.5t27.5 11.5q25 0 35 -25q3 -7 17.5 -47t38 -103.5t54 -146.5t64.5 -176.5
t70 -193.5t70.5 -197t65.5 -187t56 -164q11 80 24 169.5t27.5 181t29 179.5t29 165t26.5 138t22 98q22 88 63 164.5t99.5 133.5t134 89.5t167.5 32.5q35 0 50.5 -8t15.5 -31v-5v0zM1555 -136q0 -55 -20 -108.5t-77 -95.5q-6 -4 -14.5 -7t-17.5 -3q-17 0 -26 9t-9 21
q0 19 16 31q39 29 56 64.5t17 85.5q0 16 9.5 27.5t26.5 11.5q15 0 26.5 -9.5t12.5 -26.5z" />
    <glyph glyph-name="ncommaaccent" unicode="&#x146;" horiz-adv-x="911" 
d="M260 90q16 33 37 72.5t45 80t50.5 80.5t55.5 76q29 35 58.5 50.5t55.5 15.5q52 0 77 -38t25 -94q0 -13 -1.5 -31.5t-3 -39.5t-3 -42.5t-1.5 -40.5q0 -24 2.5 -46t9.5 -38.5t20 -26t34 -9.5q38 0 74 29.5t66.5 70t53 82.5t33.5 68q5 11 14.5 17t20.5 6q17 0 27.5 -12.5
t10.5 -26.5q0 -7 -3 -14q-4 -8 -16 -33t-31.5 -57.5t-45.5 -69t-57.5 -66.5t-68 -50t-76.5 -20q-45 0 -73 17.5t-44 46t-21.5 63t-5.5 69.5q0 15 1.5 34t4 40t4 42t1.5 40q0 32 -10 43.5t-18 11.5q-16 0 -36.5 -18.5t-43 -48.5t-46 -67.5t-44 -74.5t-38 -70.5t-27.5 -55.5
q-20 -42 -40 -56.5t-41 -14.5q-29 0 -46.5 17.5t-17.5 49.5q0 7 2 27.5t5 49t6 61.5t6 65.5t5 60.5t2 47q0 25 -2 48t-8 28q-9 -3 -32 -37.5t-59 -121.5q-5 -11 -15 -17t-21 -6q-17 0 -27 11.5t-10 26.5q0 7 3 15q45 107 84.5 157.5t78.5 50.5q23 0 39 -11.5t25.5 -30.5
t14 -42t4.5 -47q0 -18 -2.5 -56t-6.5 -81.5t-7.5 -86.5t-6.5 -72zM507 -136q0 -55 -20 -108.5t-77 -95.5q-6 -4 -14.5 -7t-17.5 -3q-17 0 -26 9t-9 21q0 19 16 31q39 29 56 64.5t17 85.5q0 16 9.5 27.5t26.5 11.5q15 0 26.5 -9.5t12.5 -26.5z" />
    <glyph glyph-name="Ncaron" unicode="&#x147;" horiz-adv-x="2310" 
d="M2660 1504q-2 -15 -13 -24t-25 -9q-2 0 -7 0.5t-23 0.5q-19 0 -48.5 -4t-65 -16.5t-74 -36.5t-75.5 -64.5t-70 -100t-56 -143.5q-12 -42 -27.5 -120.5t-33 -176.5t-35 -209t-33 -218t-28.5 -203.5t-20 -165.5q-2 -13 -11.5 -23.5t-23.5 -10.5t-24.5 7t-14.5 21
q-13 48 -41 133t-64.5 191.5t-79.5 226.5t-85.5 237.5t-82 225t-69.5 189.5q-5 -56 -15.5 -124.5t-28 -147t-43.5 -166t-62 -181.5q-56 -144 -131.5 -246t-158.5 -170t-168.5 -107.5t-160.5 -59.5t-135 -25.5t-92 -5.5q-110 0 -202.5 29t-160 82.5t-105 128t-37.5 164.5
q0 81 36.5 151.5t98 122.5t141 82t165.5 30q71 0 127.5 -14t100 -35.5t75 -46.5t52 -47.5t31 -38.5t12.5 -19q4 -8 4 -18q0 -14 -10.5 -26t-27.5 -12q-22 0 -33 20q-1 3 -19.5 28.5t-57 55.5t-99.5 54.5t-148 24.5q-71 0 -138.5 -24t-119.5 -66t-83.5 -99.5t-31.5 -124.5
q0 -73 34 -133.5t92.5 -103.5t136 -66.5t165.5 -23.5q34 0 90 5t125.5 23t146.5 54.5t152 99.5t143.5 157t120.5 228q54 138 84.5 262.5t45.5 224.5t18.5 170.5t3.5 100.5v20q0 16 10.5 27.5t27.5 11.5q25 0 35 -25q3 -7 17.5 -47t38 -103.5t54 -146.5t64.5 -176.5
t70 -193.5t70.5 -197t65.5 -187t56 -164q11 80 24 169.5t27.5 181t29 179.5t29 165t26.5 138t22 98q22 88 63 164.5t99.5 133.5t134 89.5t167.5 32.5q35 0 50.5 -8t15.5 -31v-5v0zM1797 1676q-6 9 -6 19q0 13 9.5 23t23.5 10q17 0 27 -13l82 -116l84 116q10 13 26 13
q14 0 24 -10t10 -23q0 -12 -7 -20l-112 -152q-10 -13 -27 -13t-26 14z" />
    <glyph glyph-name="ncaron" unicode="&#x148;" horiz-adv-x="911" 
d="M260 90q16 33 37 72.5t45 80t50.5 80.5t55.5 76q29 35 58.5 50.5t55.5 15.5q52 0 77 -38t25 -94q0 -13 -1.5 -31.5t-3 -39.5t-3 -42.5t-1.5 -40.5q0 -24 2.5 -46t9.5 -38.5t20 -26t34 -9.5q38 0 74 29.5t66.5 70t53 82.5t33.5 68q5 11 14.5 17t20.5 6q17 0 27.5 -12.5
t10.5 -26.5q0 -7 -3 -14q-4 -8 -16 -33t-31.5 -57.5t-45.5 -69t-57.5 -66.5t-68 -50t-76.5 -20q-45 0 -73 17.5t-44 46t-21.5 63t-5.5 69.5q0 15 1.5 34t4 40t4 42t1.5 40q0 32 -10 43.5t-18 11.5q-16 0 -36.5 -18.5t-43 -48.5t-46 -67.5t-44 -74.5t-38 -70.5t-27.5 -55.5
q-20 -42 -40 -56.5t-41 -14.5q-29 0 -46.5 17.5t-17.5 49.5q0 7 2 27.5t5 49t6 61.5t6 65.5t5 60.5t2 47q0 25 -2 48t-8 28q-9 -3 -32 -37.5t-59 -121.5q-5 -11 -15 -17t-21 -6q-17 0 -27 11.5t-10 26.5q0 7 3 15q45 107 84.5 157.5t78.5 50.5q23 0 39 -11.5t25.5 -30.5
t14 -42t4.5 -47q0 -18 -2.5 -56t-6.5 -81.5t-7.5 -86.5t-6.5 -72zM284 778q-6 9 -6 19q0 13 9.5 23t23.5 10q17 0 27 -13l82 -116l84 116q10 13 26 13q14 0 24 -10t10 -23q0 -12 -7 -20l-112 -152q-10 -13 -27 -13t-26 14z" />
    <glyph glyph-name="napostrophe" unicode="&#x149;" horiz-adv-x="911" 
d="M260 90q16 33 37 72.5t45 80t50.5 80.5t55.5 76q29 35 58.5 50.5t55.5 15.5q52 0 77 -38t25 -94q0 -13 -1.5 -31.5t-3 -39.5t-3 -42.5t-1.5 -40.5q0 -24 2.5 -46t9.5 -38.5t20 -26t34 -9.5q38 0 74 29.5t66.5 70t53 82.5t33.5 68q5 11 14.5 17t20.5 6q17 0 27.5 -12.5
t10.5 -26.5q0 -7 -3 -14q-4 -8 -16 -33t-31.5 -57.5t-45.5 -69t-57.5 -66.5t-68 -50t-76.5 -20q-45 0 -73 17.5t-44 46t-21.5 63t-5.5 69.5q0 15 1.5 34t4 40t4 42t1.5 40q0 32 -10 43.5t-18 11.5q-16 0 -36.5 -18.5t-43 -48.5t-46 -67.5t-44 -74.5t-38 -70.5t-27.5 -55.5
q-20 -42 -40 -56.5t-41 -14.5q-29 0 -46.5 17.5t-17.5 49.5q0 7 2 27.5t5 49t6 61.5t6 65.5t5 60.5t2 47q0 25 -2 48t-8 28q-9 -3 -32 -37.5t-59 -121.5q-5 -11 -15 -17t-21 -6q-17 0 -27 11.5t-10 26.5q0 7 3 15q45 107 84.5 157.5t78.5 50.5q23 0 39 -11.5t25.5 -30.5
t14 -42t4.5 -47q0 -18 -2.5 -56t-6.5 -81.5t-7.5 -86.5t-6.5 -72zM113 1364q6 -153 -100 -261q-13 -11 -27 -11q-16 0 -27 11t-11 26.5t11 26.5q83 85 79 205q-1 16 9.5 27.5t26.5 11.5q15 0 26.5 -10t12.5 -26z" />
    <glyph glyph-name="Eng" unicode="&#x14a;" horiz-adv-x="2354" 
d="M2660 1504q-2 -15 -13 -24t-25 -9q-2 0 -7 0.5t-23 0.5q-19 0 -48.5 -4t-65 -16.5t-74 -36.5t-75.5 -64.5t-70 -100t-56 -143.5q-10 -34 -22 -92t-25.5 -131t-27.5 -157t-27.5 -172t-26.5 -175t-23 -165q43 8 85 14t84 8q16 1 28 -10t12 -30q0 -14 -10 -24.5t-25 -11.5
q-46 -3 -92 -9t-93 -16q-4 -34 -7.5 -65t-6.5 -57q-1 -9 -4.5 -44t-12 -85t-24 -111t-39 -123.5t-57 -121t-79.5 -104t-104.5 -73t-132.5 -27.5q-65 0 -115.5 24t-86 64.5t-54 94.5t-18.5 113q0 96 50 181.5t133.5 156.5t191.5 126.5t225 91.5q-24 71 -53.5 157t-62.5 179
t-67.5 189.5t-68 187.5t-63.5 173.5t-54 147.5q-5 -56 -15.5 -124.5t-28 -147t-43.5 -166t-62 -181.5q-56 -144 -131.5 -246t-158.5 -170t-168.5 -107.5t-160.5 -59.5t-135 -25.5t-92 -5.5q-110 0 -202.5 29t-160 82.5t-105 128t-37.5 164.5q0 81 36.5 151.5t98 122.5
t141 82t165.5 30q71 0 127.5 -14t100 -35.5t75 -46.5t52 -47.5t31 -38.5t12.5 -19q4 -8 4 -18q0 -14 -10.5 -26t-27.5 -12q-22 0 -33 20q-1 3 -19.5 28.5t-57 55.5t-99.5 54.5t-148 24.5q-71 0 -138.5 -24t-119.5 -66t-83.5 -99.5t-31.5 -124.5q0 -73 34 -133.5t92.5 -103.5
t136 -66.5t165.5 -23.5q34 0 90 5t125.5 23t146.5 54.5t152 99.5t143.5 157t120.5 228q54 138 84.5 262.5t45.5 224.5t18.5 170.5t3.5 100.5v20q0 16 10.5 27.5t27.5 11.5q25 0 35 -25q3 -7 17.5 -47t38 -103.5t54 -146.5t64.5 -176.5t70 -193.5t70.5 -197t65.5 -187
t56 -164q11 80 24 169.5t27.5 181t29 179.5t29 165t26.5 138t22 98q22 88 63 164.5t99.5 133.5t134 89.5t167.5 32.5q35 0 50.5 -8t15.5 -31v-5zM1571 -602q79 0 137 39.5t99.5 100.5t68 134.5t42.5 141.5t23 121.5t10 74.5q-9 36 -29 96q-110 -33 -209 -81.5t-174 -111
t-119.5 -136.5t-44.5 -156q0 -50 15.5 -91t42.5 -70t62.5 -45.5t75.5 -16.5z" />
    <glyph glyph-name="eng" unicode="&#x14b;" horiz-adv-x="881" 
d="M580 -116q-2 60 -0.5 129.5t3.5 133.5t4.5 114.5t2.5 73.5q0 32 -10 43.5t-18 11.5q-16 0 -36.5 -18.5t-43 -48.5t-46 -67.5t-44 -74.5t-38 -70.5t-27.5 -55.5q-20 -42 -40 -56.5t-41 -14.5q-29 0 -46.5 17.5t-17.5 49.5q0 7 2 27.5t5 49t6 61.5t6 65.5t5 60.5t2 47
q0 25 -2 48t-8 28q-9 -3 -32 -37.5t-59 -121.5q-5 -11 -15 -17t-21 -6q-17 0 -27 11.5t-10 26.5q0 7 3 15q45 107 84.5 157.5t78.5 50.5q23 0 39 -11.5t25.5 -30.5t14 -42t4.5 -47q0 -18 -2.5 -56t-6.5 -81.5t-7.5 -86.5t-6.5 -72q16 33 37 72.5t45 80t50.5 80.5t55.5 76
q29 35 58.5 50.5t55.5 15.5q52 0 77 -38t25 -94q0 -23 -1.5 -63.5t-3 -90.5t-3 -105.5t-1.5 -108.5q37 40 76 84.5t75 89t66 88t47 82.5q9 22 34 22q17 0 27.5 -11.5t10.5 -25.5q0 -8 -3 -15q-23 -52 -63 -108t-86.5 -111.5t-95 -108t-88.5 -97.5q1 -80 2.5 -157t1.5 -146
q0 -275 -54 -408t-161 -133q-37 0 -68 16t-53 46t-34.5 74t-12.5 100q0 62 16.5 135.5t53 155.5t94.5 169.5t140 177.5zM584 -443q0 51 -1 102t-2 111q-62 -75 -105.5 -148t-71.5 -140t-40.5 -127t-12.5 -109q0 -28 4 -56.5t14.5 -52t28.5 -38t46 -14.5q11 0 26 5t30.5 21.5
t30.5 47.5t27 83.5t19 129.5t7 185z" />
    <glyph glyph-name="Ograve" unicode="&#xd2;" horiz-adv-x="1584" 
d="M1500 835q18 10 37.5 25t37.5 31t32.5 30.5t22.5 25.5q6 7 16 7q17 0 27.5 -12.5t10.5 -26.5q0 -10 -4 -17q-12 -16 -30.5 -35.5t-43 -39.5t-53.5 -40.5t-60 -38.5q-17 -197 -82.5 -343.5t-167 -244.5t-232 -146.5t-277.5 -48.5q-80 0 -161.5 17t-156.5 52.5t-140 90
t-113 130t-75.5 172t-27.5 216.5q0 119 28.5 225.5t84 198t136.5 165t187 126.5q8 4 18 4q14 0 26 -10t12 -27q0 -11 -6.5 -20.5t-17.5 -14.5q-6 -3 -37.5 -18.5t-75 -47.5t-93 -81.5t-91 -120.5t-69 -165t-27.5 -214q0 -110 23.5 -194t62.5 -147t89.5 -107t104 -73
t106.5 -46t97.5 -25t75.5 -10t41 -2q124 0 237 39t203 120.5t151.5 207.5t83.5 300q-65 -29 -135.5 -45.5t-147.5 -16.5q-106 0 -206 27.5t-177 83t-124 138.5t-47 194q0 90 31.5 161.5t85.5 122t125 77t149 26.5q64 0 128.5 -15t124 -46.5t111 -79.5t90 -115t60.5 -152.5
t22 -191.5v-35zM1422 788q3 39 3 78q0 142 -41.5 243t-108 165t-149.5 93.5t-166 29.5q-64 0 -120.5 -21t-99 -61t-67 -98.5t-24.5 -133.5q0 -72 30.5 -138.5t90.5 -118t149.5 -82t208.5 -30.5q81 0 154.5 20t139.5 54zM1025 1612q10 -10 10 -24q0 -13 -9.5 -23t-23.5 -10
q-13 0 -23 9l-160 152q-10 9 -10 23t10 24t23 10q12 0 23 -9l160 -152v0z" />
    <glyph glyph-name="ograve" unicode="&#xf2;" horiz-adv-x="647" 
d="M499 110q-25 0 -44 4q-15 -30 -36 -55.5t-48.5 -44.5t-61.5 -30t-74 -11q-47 0 -86 16.5t-68 46t-45 71t-16 91.5q0 64 23 111.5t53 79t60 47t45 15.5q17 0 25.5 -9t8.5 -24q0 -17 -10.5 -25.5t-26.5 -16.5t-34 -22.5t-33.5 -36.5t-25.5 -52t-10 -67q0 -33 10 -61.5
t29 -49t45 -32t58 -11.5q57 0 94.5 26.5t57.5 67.5q-59 31 -97 88t-38 128q0 57 27.5 93t72.5 36q27 0 51 -13t42.5 -41t29.5 -72t11 -105q0 -32 -8 -67q6 -1 12 -1h13q34 0 61 8t49 24t39.5 41t33.5 58q3 6 13 11.5t20 5.5q13 0 24.5 -10.5t11.5 -27.5q0 -8 -4 -17.5
t-8 -17.5q-17 -30 -39.5 -57.5t-53 -48t-68.5 -32.5t-85 -11zM328 362q0 -19 5 -40t15.5 -41.5t26 -39t36.5 -31.5q3 21 3 41q0 27 -4 55t-11.5 51.5t-18.5 38t-26 14.5q-6 0 -16 -9t-10 -39zM367 637q10 -10 10 -24q0 -13 -9.5 -23t-23.5 -10q-13 0 -23 9l-160 152
q-10 9 -10 23t10 24t23 10q12 0 23 -9l160 -152v0z" />
    <glyph glyph-name="Oacute" unicode="&#xd3;" horiz-adv-x="1584" 
d="M1500 835q18 10 37.5 25t37.5 31t32.5 30.5t22.5 25.5q6 7 16 7q17 0 27.5 -12.5t10.5 -26.5q0 -10 -4 -17q-12 -16 -30.5 -35.5t-43 -39.5t-53.5 -40.5t-60 -38.5q-17 -197 -82.5 -343.5t-167 -244.5t-232 -146.5t-277.5 -48.5q-80 0 -161.5 17t-156.5 52.5t-140 90
t-113 130t-75.5 172t-27.5 216.5q0 119 28.5 225.5t84 198t136.5 165t187 126.5q8 4 18 4q14 0 26 -10t12 -27q0 -11 -6.5 -20.5t-17.5 -14.5q-6 -3 -37.5 -18.5t-75 -47.5t-93 -81.5t-91 -120.5t-69 -165t-27.5 -214q0 -110 23.5 -194t62.5 -147t89.5 -107t104 -73
t106.5 -46t97.5 -25t75.5 -10t41 -2q124 0 237 39t203 120.5t151.5 207.5t83.5 300q-65 -29 -135.5 -45.5t-147.5 -16.5q-106 0 -206 27.5t-177 83t-124 138.5t-47 194q0 90 31.5 161.5t85.5 122t125 77t149 26.5q64 0 128.5 -15t124 -46.5t111 -79.5t90 -115t60.5 -152.5
t22 -191.5v-35zM1422 788q3 39 3 78q0 142 -41.5 243t-108 165t-149.5 93.5t-166 29.5q-64 0 -120.5 -21t-99 -61t-67 -98.5t-24.5 -133.5q0 -72 30.5 -138.5t90.5 -118t149.5 -82t208.5 -30.5q81 0 154.5 20t139.5 54zM899 1612l160 152q10 9 23 9t23 -10t10 -24t-10 -23
l-160 -152q-11 -9 -23 -9q-14 0 -23.5 10t-9.5 23q0 14 10 24z" />
    <glyph glyph-name="oacute" unicode="&#xf3;" horiz-adv-x="647" 
d="M499 110q-25 0 -44 4q-15 -30 -36 -55.5t-48.5 -44.5t-61.5 -30t-74 -11q-47 0 -86 16.5t-68 46t-45 71t-16 91.5q0 64 23 111.5t53 79t60 47t45 15.5q17 0 25.5 -9t8.5 -24q0 -17 -10.5 -25.5t-26.5 -16.5t-34 -22.5t-33.5 -36.5t-25.5 -52t-10 -67q0 -33 10 -61.5
t29 -49t45 -32t58 -11.5q57 0 94.5 26.5t57.5 67.5q-59 31 -97 88t-38 128q0 57 27.5 93t72.5 36q27 0 51 -13t42.5 -41t29.5 -72t11 -105q0 -32 -8 -67q6 -1 12 -1h13q34 0 61 8t49 24t39.5 41t33.5 58q3 6 13 11.5t20 5.5q13 0 24.5 -10.5t11.5 -27.5q0 -8 -4 -17.5
t-8 -17.5q-17 -30 -39.5 -57.5t-53 -48t-68.5 -32.5t-85 -11zM328 362q0 -19 5 -40t15.5 -41.5t26 -39t36.5 -31.5q3 21 3 41q0 27 -4 55t-11.5 51.5t-18.5 38t-26 14.5q-6 0 -16 -9t-10 -39zM241 637l160 152q10 9 23 9t23 -10t10 -24t-10 -23l-160 -152q-11 -9 -23 -9
q-14 0 -23.5 10t-9.5 23q0 14 10 24z" />
    <glyph glyph-name="Ocircumflex" unicode="&#xd4;" horiz-adv-x="1584" 
d="M1500 835q18 10 37.5 25t37.5 31t32.5 30.5t22.5 25.5q6 7 16 7q17 0 27.5 -12.5t10.5 -26.5q0 -10 -4 -17q-12 -16 -30.5 -35.5t-43 -39.5t-53.5 -40.5t-60 -38.5q-17 -197 -82.5 -343.5t-167 -244.5t-232 -146.5t-277.5 -48.5q-80 0 -161.5 17t-156.5 52.5t-140 90
t-113 130t-75.5 172t-27.5 216.5q0 119 28.5 225.5t84 198t136.5 165t187 126.5q8 4 18 4q14 0 26 -10t12 -27q0 -11 -6.5 -20.5t-17.5 -14.5q-6 -3 -37.5 -18.5t-75 -47.5t-93 -81.5t-91 -120.5t-69 -165t-27.5 -214q0 -110 23.5 -194t62.5 -147t89.5 -107t104 -73
t106.5 -46t97.5 -25t75.5 -10t41 -2q124 0 237 39t203 120.5t151.5 207.5t83.5 300q-65 -29 -135.5 -45.5t-147.5 -16.5q-106 0 -206 27.5t-177 83t-124 138.5t-47 194q0 90 31.5 161.5t85.5 122t125 77t149 26.5q64 0 128.5 -15t124 -46.5t111 -79.5t90 -115t60.5 -152.5
t22 -191.5v-35zM1422 788q3 39 3 78q0 142 -41.5 243t-108 165t-149.5 93.5t-166 29.5q-64 0 -120.5 -21t-99 -61t-67 -98.5t-24.5 -133.5q0 -72 30.5 -138.5t90.5 -118t149.5 -82t208.5 -30.5q81 0 154.5 20t139.5 54zM1095 1607q6 -9 6 -19q0 -13 -9.5 -23t-23.5 -10
q-17 0 -27 13l-82 116l-84 -116q-10 -13 -26 -13q-14 0 -24 10t-10 23q0 12 7 20l112 152q10 13 27 13t26 -14z" />
    <glyph glyph-name="ocircumflex" unicode="&#xf4;" horiz-adv-x="647" 
d="M499 110q-25 0 -44 4q-15 -30 -36 -55.5t-48.5 -44.5t-61.5 -30t-74 -11q-47 0 -86 16.5t-68 46t-45 71t-16 91.5q0 64 23 111.5t53 79t60 47t45 15.5q17 0 25.5 -9t8.5 -24q0 -17 -10.5 -25.5t-26.5 -16.5t-34 -22.5t-33.5 -36.5t-25.5 -52t-10 -67q0 -33 10 -61.5
t29 -49t45 -32t58 -11.5q57 0 94.5 26.5t57.5 67.5q-59 31 -97 88t-38 128q0 57 27.5 93t72.5 36q27 0 51 -13t42.5 -41t29.5 -72t11 -105q0 -32 -8 -67q6 -1 12 -1h13q34 0 61 8t49 24t39.5 41t33.5 58q3 6 13 11.5t20 5.5q13 0 24.5 -10.5t11.5 -27.5q0 -8 -4 -17.5
t-8 -17.5q-17 -30 -39.5 -57.5t-53 -48t-68.5 -32.5t-85 -11zM328 362q0 -19 5 -40t15.5 -41.5t26 -39t36.5 -31.5q3 21 3 41q0 27 -4 55t-11.5 51.5t-18.5 38t-26 14.5q-6 0 -16 -9t-10 -39zM437 632q6 -9 6 -19q0 -13 -9.5 -23t-23.5 -10q-17 0 -27 13l-82 116l-84 -116
q-10 -13 -26 -13q-14 0 -24 10t-10 23q0 12 7 20l112 152q10 13 27 13t26 -14z" />
    <glyph glyph-name="Otilde" unicode="&#xd5;" horiz-adv-x="1584" 
d="M1500 835q18 10 37.5 25t37.5 31t32.5 30.5t22.5 25.5q6 7 16 7q17 0 27.5 -12.5t10.5 -26.5q0 -10 -4 -17q-12 -16 -30.5 -35.5t-43 -39.5t-53.5 -40.5t-60 -38.5q-17 -197 -82.5 -343.5t-167 -244.5t-232 -146.5t-277.5 -48.5q-80 0 -161.5 17t-156.5 52.5t-140 90
t-113 130t-75.5 172t-27.5 216.5q0 119 28.5 225.5t84 198t136.5 165t187 126.5q8 4 18 4q14 0 26 -10t12 -27q0 -11 -6.5 -20.5t-17.5 -14.5q-6 -3 -37.5 -18.5t-75 -47.5t-93 -81.5t-91 -120.5t-69 -165t-27.5 -214q0 -110 23.5 -194t62.5 -147t89.5 -107t104 -73
t106.5 -46t97.5 -25t75.5 -10t41 -2q124 0 237 39t203 120.5t151.5 207.5t83.5 300q-65 -29 -135.5 -45.5t-147.5 -16.5q-106 0 -206 27.5t-177 83t-124 138.5t-47 194q0 90 31.5 161.5t85.5 122t125 77t149 26.5q64 0 128.5 -15t124 -46.5t111 -79.5t90 -115t60.5 -152.5
t22 -191.5v-35zM1422 788q3 39 3 78q0 142 -41.5 243t-108 165t-149.5 93.5t-166 29.5q-64 0 -120.5 -21t-99 -61t-67 -98.5t-24.5 -133.5q0 -72 30.5 -138.5t90.5 -118t149.5 -82t208.5 -30.5q81 0 154.5 20t139.5 54zM1123 1657q0 -18 -7.5 -34t-20.5 -28t-31.5 -19
t-40.5 -7q-20 0 -35 6t-26.5 16t-19.5 21t-15 22q-9 14 -17.5 24t-20.5 10q-9 0 -14.5 -3.5t-7.5 -7.5t-2.5 -8.5t-0.5 -5.5q0 -10 2.5 -17.5t6.5 -15.5q2 -4 3 -8t1 -9q0 -13 -10 -22.5t-26 -9.5q-8 0 -17 3.5t-16 12.5t-11.5 25t-4.5 41q0 16 6.5 32.5t18.5 29t30 20.5
t42 8q21 0 36 -6.5t27 -16t20.5 -21.5t15.5 -22q10 -14 18.5 -24t20.5 -10q16 0 20 8.5t4 13.5q0 12 -4 22.5t-8 19.5q-7 12 -7 20q0 12 10 22t26 10q19 0 37 -23t18 -69z" />
    <glyph glyph-name="otilde" unicode="&#xf5;" horiz-adv-x="647" 
d="M499 110q-25 0 -44 4q-15 -30 -36 -55.5t-48.5 -44.5t-61.5 -30t-74 -11q-47 0 -86 16.5t-68 46t-45 71t-16 91.5q0 64 23 111.5t53 79t60 47t45 15.5q17 0 25.5 -9t8.5 -24q0 -17 -10.5 -25.5t-26.5 -16.5t-34 -22.5t-33.5 -36.5t-25.5 -52t-10 -67q0 -33 10 -61.5
t29 -49t45 -32t58 -11.5q57 0 94.5 26.5t57.5 67.5q-59 31 -97 88t-38 128q0 57 27.5 93t72.5 36q27 0 51 -13t42.5 -41t29.5 -72t11 -105q0 -32 -8 -67q6 -1 12 -1h13q34 0 61 8t49 24t39.5 41t33.5 58q3 6 13 11.5t20 5.5q13 0 24.5 -10.5t11.5 -27.5q0 -8 -4 -17.5
t-8 -17.5q-17 -30 -39.5 -57.5t-53 -48t-68.5 -32.5t-85 -11zM328 362q0 -19 5 -40t15.5 -41.5t26 -39t36.5 -31.5q3 21 3 41q0 27 -4 55t-11.5 51.5t-18.5 38t-26 14.5q-6 0 -16 -9t-10 -39zM465 682q0 -18 -7.5 -34t-20.5 -28t-31.5 -19t-40.5 -7q-20 0 -35 6t-26.5 16
t-19.5 21t-15 22q-9 14 -17.5 24t-20.5 10q-9 0 -14.5 -3.5t-7.5 -7.5t-2.5 -8.5t-0.5 -5.5q0 -10 2.5 -17.5t6.5 -15.5q2 -4 3 -8t1 -9q0 -13 -10 -22.5t-26 -9.5q-8 0 -17 3.5t-16 12.5t-11.5 25t-4.5 41q0 16 6.5 32.5t18.5 29t30 20.5t42 8q21 0 36 -6.5t27 -16
t20.5 -21.5t15.5 -22q10 -14 18.5 -24t20.5 -10q16 0 20 8.5t4 13.5q0 12 -4 22.5t-8 19.5q-7 12 -7 20q0 12 10 22t26 10q19 0 37 -23t18 -69z" />
    <glyph glyph-name="Odieresis" unicode="&#xd6;" horiz-adv-x="1584" 
d="M1500 835q18 10 37.5 25t37.5 31t32.5 30.5t22.5 25.5q6 7 16 7q17 0 27.5 -12.5t10.5 -26.5q0 -10 -4 -17q-12 -16 -30.5 -35.5t-43 -39.5t-53.5 -40.5t-60 -38.5q-17 -197 -82.5 -343.5t-167 -244.5t-232 -146.5t-277.5 -48.5q-80 0 -161.5 17t-156.5 52.5t-140 90
t-113 130t-75.5 172t-27.5 216.5q0 119 28.5 225.5t84 198t136.5 165t187 126.5q8 4 18 4q14 0 26 -10t12 -27q0 -11 -6.5 -20.5t-17.5 -14.5q-6 -3 -37.5 -18.5t-75 -47.5t-93 -81.5t-91 -120.5t-69 -165t-27.5 -214q0 -110 23.5 -194t62.5 -147t89.5 -107t104 -73
t106.5 -46t97.5 -25t75.5 -10t41 -2q124 0 237 39t203 120.5t151.5 207.5t83.5 300q-65 -29 -135.5 -45.5t-147.5 -16.5q-106 0 -206 27.5t-177 83t-124 138.5t-47 194q0 90 31.5 161.5t85.5 122t125 77t149 26.5q64 0 128.5 -15t124 -46.5t111 -79.5t90 -115t60.5 -152.5
t22 -191.5v-35zM1422 788q3 39 3 78q0 142 -41.5 243t-108 165t-149.5 93.5t-166 29.5q-64 0 -120.5 -21t-99 -61t-67 -98.5t-24.5 -133.5q0 -72 30.5 -138.5t90.5 -118t149.5 -82t208.5 -30.5q81 0 154.5 20t139.5 54zM1105 1645q0 -21 -15 -36t-38 -15q-21 0 -36 15
t-15 36q0 22 15 37t36 15q23 0 38 -15t15 -37zM919 1645q0 -21 -15 -36t-37 -15q-21 0 -36 15t-15 36q0 22 15 37t36 15q22 0 37 -15t15 -37z" />
    <glyph glyph-name="odieresis" unicode="&#xf6;" horiz-adv-x="647" 
d="M499 110q-25 0 -44 4q-15 -30 -36 -55.5t-48.5 -44.5t-61.5 -30t-74 -11q-47 0 -86 16.5t-68 46t-45 71t-16 91.5q0 64 23 111.5t53 79t60 47t45 15.5q17 0 25.5 -9t8.5 -24q0 -17 -10.5 -25.5t-26.5 -16.5t-34 -22.5t-33.5 -36.5t-25.5 -52t-10 -67q0 -33 10 -61.5
t29 -49t45 -32t58 -11.5q57 0 94.5 26.5t57.5 67.5q-59 31 -97 88t-38 128q0 57 27.5 93t72.5 36q27 0 51 -13t42.5 -41t29.5 -72t11 -105q0 -32 -8 -67q6 -1 12 -1h13q34 0 61 8t49 24t39.5 41t33.5 58q3 6 13 11.5t20 5.5q13 0 24.5 -10.5t11.5 -27.5q0 -8 -4 -17.5
t-8 -17.5q-17 -30 -39.5 -57.5t-53 -48t-68.5 -32.5t-85 -11zM328 362q0 -19 5 -40t15.5 -41.5t26 -39t36.5 -31.5q3 21 3 41q0 27 -4 55t-11.5 51.5t-18.5 38t-26 14.5q-6 0 -16 -9t-10 -39zM447 670q0 -21 -15 -36t-38 -15q-21 0 -36 15t-15 36q0 22 15 37t36 15
q23 0 38 -15t15 -37zM261 670q0 -21 -15 -36t-37 -15q-21 0 -36 15t-15 36q0 22 15 37t36 15q22 0 37 -15t15 -37z" />
    <glyph glyph-name="Omacron" unicode="&#x14c;" horiz-adv-x="1584" 
d="M1500 835q18 10 37.5 25t37.5 31t32.5 30.5t22.5 25.5q6 7 16 7q17 0 27.5 -12.5t10.5 -26.5q0 -10 -4 -17q-12 -16 -30.5 -35.5t-43 -39.5t-53.5 -40.5t-60 -38.5q-17 -197 -82.5 -343.5t-167 -244.5t-232 -146.5t-277.5 -48.5q-80 0 -161.5 17t-156.5 52.5t-140 90
t-113 130t-75.5 172t-27.5 216.5q0 119 28.5 225.5t84 198t136.5 165t187 126.5q8 4 18 4q14 0 26 -10t12 -27q0 -11 -6.5 -20.5t-17.5 -14.5q-6 -3 -37.5 -18.5t-75 -47.5t-93 -81.5t-91 -120.5t-69 -165t-27.5 -214q0 -110 23.5 -194t62.5 -147t89.5 -107t104 -73
t106.5 -46t97.5 -25t75.5 -10t41 -2q124 0 237 39t203 120.5t151.5 207.5t83.5 300q-65 -29 -135.5 -45.5t-147.5 -16.5q-106 0 -206 27.5t-177 83t-124 138.5t-47 194q0 90 31.5 161.5t85.5 122t125 77t149 26.5q64 0 128.5 -15t124 -46.5t111 -79.5t90 -115t60.5 -152.5
t22 -191.5v-35zM1422 788q3 39 3 78q0 142 -41.5 243t-108 165t-149.5 93.5t-166 29.5q-64 0 -120.5 -21t-99 -61t-67 -98.5t-24.5 -133.5q0 -72 30.5 -138.5t90.5 -118t149.5 -82t208.5 -30.5q81 0 154.5 20t139.5 54zM1119 1653q0 -14 -9 -23.5t-23 -10.5l-252 -10
q-13 -1 -24 8.5t-11 23.5t9 23.5t23 10.5l253 10q14 1 24 -9t10 -23z" />
    <glyph glyph-name="omacron" unicode="&#x14d;" horiz-adv-x="647" 
d="M499 110q-25 0 -44 4q-15 -30 -36 -55.5t-48.5 -44.5t-61.5 -30t-74 -11q-47 0 -86 16.5t-68 46t-45 71t-16 91.5q0 64 23 111.5t53 79t60 47t45 15.5q17 0 25.5 -9t8.5 -24q0 -17 -10.5 -25.5t-26.5 -16.5t-34 -22.5t-33.5 -36.5t-25.5 -52t-10 -67q0 -33 10 -61.5
t29 -49t45 -32t58 -11.5q57 0 94.5 26.5t57.5 67.5q-59 31 -97 88t-38 128q0 57 27.5 93t72.5 36q27 0 51 -13t42.5 -41t29.5 -72t11 -105q0 -32 -8 -67q6 -1 12 -1h13q34 0 61 8t49 24t39.5 41t33.5 58q3 6 13 11.5t20 5.5q13 0 24.5 -10.5t11.5 -27.5q0 -8 -4 -17.5
t-8 -17.5q-17 -30 -39.5 -57.5t-53 -48t-68.5 -32.5t-85 -11zM328 362q0 -19 5 -40t15.5 -41.5t26 -39t36.5 -31.5q3 21 3 41q0 27 -4 55t-11.5 51.5t-18.5 38t-26 14.5q-6 0 -16 -9t-10 -39zM461 678q0 -14 -9 -23.5t-23 -10.5l-252 -10q-13 -1 -24 8.5t-11 23.5t9 23.5
t23 10.5l253 10q14 1 24 -9t10 -23z" />
    <glyph glyph-name="Obreve" unicode="&#x14e;" horiz-adv-x="1584" 
d="M1500 835q18 10 37.5 25t37.5 31t32.5 30.5t22.5 25.5q6 7 16 7q17 0 27.5 -12.5t10.5 -26.5q0 -10 -4 -17q-12 -16 -30.5 -35.5t-43 -39.5t-53.5 -40.5t-60 -38.5q-17 -197 -82.5 -343.5t-167 -244.5t-232 -146.5t-277.5 -48.5q-80 0 -161.5 17t-156.5 52.5t-140 90
t-113 130t-75.5 172t-27.5 216.5q0 119 28.5 225.5t84 198t136.5 165t187 126.5q8 4 18 4q14 0 26 -10t12 -27q0 -11 -6.5 -20.5t-17.5 -14.5q-6 -3 -37.5 -18.5t-75 -47.5t-93 -81.5t-91 -120.5t-69 -165t-27.5 -214q0 -110 23.5 -194t62.5 -147t89.5 -107t104 -73
t106.5 -46t97.5 -25t75.5 -10t41 -2q124 0 237 39t203 120.5t151.5 207.5t83.5 300q-65 -29 -135.5 -45.5t-147.5 -16.5q-106 0 -206 27.5t-177 83t-124 138.5t-47 194q0 90 31.5 161.5t85.5 122t125 77t149 26.5q64 0 128.5 -15t124 -46.5t111 -79.5t90 -115t60.5 -152.5
t22 -191.5v-35zM1422 788q3 39 3 78q0 142 -41.5 243t-108 165t-149.5 93.5t-166 29.5q-64 0 -120.5 -21t-99 -61t-67 -98.5t-24.5 -133.5q0 -72 30.5 -138.5t90.5 -118t149.5 -82t208.5 -30.5q81 0 154.5 20t139.5 54zM1101 1715q0 -29 -9.5 -56t-27.5 -48t-44.5 -33.5
t-60.5 -12.5q-37 0 -64 15t-45 38t-26.5 49t-8.5 49q0 14 10 24t24 10q13 0 24 -10t11 -24t4.5 -29t14 -27.5t23.5 -21t33 -8.5q29 0 51 19t22 63q0 14 10 25t26 11q14 0 23.5 -10t9.5 -23z" />
    <glyph glyph-name="obreve" unicode="&#x14f;" horiz-adv-x="647" 
d="M499 110q-25 0 -44 4q-15 -30 -36 -55.5t-48.5 -44.5t-61.5 -30t-74 -11q-47 0 -86 16.5t-68 46t-45 71t-16 91.5q0 64 23 111.5t53 79t60 47t45 15.5q17 0 25.5 -9t8.5 -24q0 -17 -10.5 -25.5t-26.5 -16.5t-34 -22.5t-33.5 -36.5t-25.5 -52t-10 -67q0 -33 10 -61.5
t29 -49t45 -32t58 -11.5q57 0 94.5 26.5t57.5 67.5q-59 31 -97 88t-38 128q0 57 27.5 93t72.5 36q27 0 51 -13t42.5 -41t29.5 -72t11 -105q0 -32 -8 -67q6 -1 12 -1h13q34 0 61 8t49 24t39.5 41t33.5 58q3 6 13 11.5t20 5.5q13 0 24.5 -10.5t11.5 -27.5q0 -8 -4 -17.5
t-8 -17.5q-17 -30 -39.5 -57.5t-53 -48t-68.5 -32.5t-85 -11zM328 362q0 -19 5 -40t15.5 -41.5t26 -39t36.5 -31.5q3 21 3 41q0 27 -4 55t-11.5 51.5t-18.5 38t-26 14.5q-6 0 -16 -9t-10 -39zM443 740q0 -29 -9.5 -56t-27.5 -48t-44.5 -33.5t-60.5 -12.5q-37 0 -64 15
t-45 38t-26.5 49t-8.5 49q0 14 10 24t24 10q13 0 24 -10t11 -24t4.5 -29t14 -27.5t23.5 -21t33 -8.5q29 0 51 19t22 63q0 14 10 25t26 11q14 0 23.5 -10t9.5 -23z" />
    <glyph glyph-name="Ohungarumlaut" unicode="&#x150;" horiz-adv-x="1584" 
d="M1500 835q18 10 37.5 25t37.5 31t32.5 30.5t22.5 25.5q6 7 16 7q17 0 27.5 -12.5t10.5 -26.5q0 -10 -4 -17q-12 -16 -30.5 -35.5t-43 -39.5t-53.5 -40.5t-60 -38.5q-17 -197 -82.5 -343.5t-167 -244.5t-232 -146.5t-277.5 -48.5q-80 0 -161.5 17t-156.5 52.5t-140 90
t-113 130t-75.5 172t-27.5 216.5q0 119 28.5 225.5t84 198t136.5 165t187 126.5q8 4 18 4q14 0 26 -10t12 -27q0 -11 -6.5 -20.5t-17.5 -14.5q-6 -3 -37.5 -18.5t-75 -47.5t-93 -81.5t-91 -120.5t-69 -165t-27.5 -214q0 -110 23.5 -194t62.5 -147t89.5 -107t104 -73
t106.5 -46t97.5 -25t75.5 -10t41 -2q124 0 237 39t203 120.5t151.5 207.5t83.5 300q-65 -29 -135.5 -45.5t-147.5 -16.5q-106 0 -206 27.5t-177 83t-124 138.5t-47 194q0 90 31.5 161.5t85.5 122t125 77t149 26.5q64 0 128.5 -15t124 -46.5t111 -79.5t90 -115t60.5 -152.5
t22 -191.5v-35zM1422 788q3 39 3 78q0 142 -41.5 243t-108 165t-149.5 93.5t-166 29.5q-64 0 -120.5 -21t-99 -61t-67 -98.5t-24.5 -133.5q0 -72 30.5 -138.5t90.5 -118t149.5 -82t208.5 -30.5q81 0 154.5 20t139.5 54zM826 1612l160 152q10 9 23 9t23 -10t10 -24t-10 -23
l-160 -152q-11 -9 -23 -9q-14 0 -23.5 10t-9.5 23q0 14 10 24zM996 1612l160 152q10 9 23 9t23 -10t10 -24t-10 -23l-160 -152q-11 -9 -23 -9q-14 0 -23.5 10t-9.5 23q0 14 10 24z" />
    <glyph glyph-name="ohungarumlaut" unicode="&#x151;" horiz-adv-x="647" 
d="M499 110q-25 0 -44 4q-15 -30 -36 -55.5t-48.5 -44.5t-61.5 -30t-74 -11q-47 0 -86 16.5t-68 46t-45 71t-16 91.5q0 64 23 111.5t53 79t60 47t45 15.5q17 0 25.5 -9t8.5 -24q0 -17 -10.5 -25.5t-26.5 -16.5t-34 -22.5t-33.5 -36.5t-25.5 -52t-10 -67q0 -33 10 -61.5
t29 -49t45 -32t58 -11.5q57 0 94.5 26.5t57.5 67.5q-59 31 -97 88t-38 128q0 57 27.5 93t72.5 36q27 0 51 -13t42.5 -41t29.5 -72t11 -105q0 -32 -8 -67q6 -1 12 -1h13q34 0 61 8t49 24t39.5 41t33.5 58q3 6 13 11.5t20 5.5q13 0 24.5 -10.5t11.5 -27.5q0 -8 -4 -17.5
t-8 -17.5q-17 -30 -39.5 -57.5t-53 -48t-68.5 -32.5t-85 -11zM328 362q0 -19 5 -40t15.5 -41.5t26 -39t36.5 -31.5q3 21 3 41q0 27 -4 55t-11.5 51.5t-18.5 38t-26 14.5q-6 0 -16 -9t-10 -39zM168 637l160 152q10 9 23 9t23 -10t10 -24t-10 -23l-160 -152q-11 -9 -23 -9
q-14 0 -23.5 10t-9.5 23q0 14 10 24zM338 637l160 152q10 9 23 9t23 -10t10 -24t-10 -23l-160 -152q-11 -9 -23 -9q-14 0 -23.5 10t-9.5 23q0 14 10 24z" />
    </font>
</defs>
</svg>
