<?xml version="1.0" standalone="no"?>
<!DOCTYPE svg PUBLIC "-//W3C//DTD SVG 1.1//EN" "http://www.w3.org/Graphics/SVG/1.1/DTD/svg11.dtd">
<svg xmlns="http://www.w3.org/2000/svg">
<metadata>Copyright (C) 2014 by original authors @ fontello.com</metadata>
<defs>
<font id="gamer" horiz-adv-x="1000" >
<font-face font-family="gamer" font-weight="400" font-stretch="normal" units-per-em="1000" ascent="850" descent="-150" />
<missing-glyph horiz-adv-x="1000" />
<glyph glyph-name="gameforge" unicode="&#xe801;" d="m188 109c11-7 16 4 11 9c-70 83-93 198-67 301c23 88 81 167 164 207c86 43 191 37 273-14c42-27 77-64 103-108c8-14 24-19 41-20h198c8 0 16 5 21 11c3 6 4 11 4 16c0 15-9 29-15 41c-7 12-13 23-19 34c-13 21-27 40-43 59c-31 37-68 69-109 96c-87 55-190 82-294 78c-111-5-221-46-302-124c-71-69-114-164-118-263c-5-105 36-208 108-284c14-14 28-27 44-39m778 214c1 19-7 34-26 36h-414c-14 0-25-1-37-10c-5-5-10-10-17-13c-7-3-15-4-22-4h-192c-4 0-8-1-9-6c0-6 4-10 10-11l193-91c16-6 29-21 29-37l1-10c1-14 5-27 17-35c1-1 21-13 21-13c0 0 16-10 16-10c1-1 2-2 3-2c2-2 6-5 9-8c15-18 21-56-10-80c-41-28-88-49-137-56c-55-9-112-3-164 17c-75 30-136 86-180 152c0 1-1 2-1 3c-3 3-10 4-12-2c-1-3 5-12 7-15c6-10 12-21 19-31c14-19 29-38 45-56c33-36 72-66 114-90c92-53 199-74 304-63c119 12 232 68 313 156c35 38 63 81 83 127c11 24 19 49 26 75c3 12 5 25 7 38c2 13 4 26 4 39" horiz-adv-x="1000" />
<glyph glyph-name="jabber" unicode="&#xf317;" d="m225 850c-4 0-9 0-13-1l0 0c-18-2-37-2-55-5c-35-5-68-16-101-29c-12-5-24-10-35-16c-4-2-11-3-14-7c-2-1-2-5-2-8c-1-6-2-13-2-19c-3-26-4-52-1-77c1-8 4-23 14-24c15-3 27 16 35 27c17 24 37 47 66 58c34 13 73 16 109 18c102 7 212-11 287-86c10-11 20-22 29-34c33-48 51-103 59-161c4-27 7-54 1-81c-11-47-39-88-71-123c-23-23-47-45-73-64c-15-11-31-20-45-32c-15-14-28-31-38-49c-27-50-34-109-26-164c2-11 3-22 6-33c0-4 1-9 3-12c4-5 15-8 21-8c6-1 10 4 12 10c3 10 1 21 0 31c-4 20-7 40-6 61c2 38 17 74 43 101c27 28 63 44 94 68c61 47 116 111 137 187c8 27 10 56 7 84c-5 35-18 71-30 104c-37 102-101 198-202 245c-40 18-82 26-126 32c-20 3-40 5-61 6c-7 0-15 1-22 1z m-53-421c-10-1-20-3-28-8c-13-8-20-22-24-36c-8-28-5-59 1-87c2-9 3-18 6-27c1-3 1-8 3-10c4-5 13-6 18-5c16 2 12 29 12 40c-2 27-9 52-2 79c3 11 9 23 21 28c10 4 20-1 24-11c7-16 5-34 9-51c1-6 3-11 6-17c0-1 1-4 3-4c6 0 13 9 17 12c13 11 26 22 40 30c7 3 18 9 25 3c2-2 4-4 5-5c8-13 0-23-5-36c-7-16-14-31-24-45c-9-13-21-23-28-37c-4-8-7-18-5-27c2-8 8-13 16-11c6 1 10 7 13 11c6 9 12 17 18 26c11 16 25 32 35 49c12 21 18 45 18 69c0 20-8 50-31 55c-4 0-9 0-13-1c-5-1-11-3-16-5c-13-6-24-16-34-26c-6-7-11-15-18-21c0 15-3 30-12 43c-11 16-30 25-50 25z m-115-237c-1 0-2 0-3 0c-20-3-26-19-22-37c4-22 22-40 40-54c46-35 105-54 162-51c22 1 47 5 67 14c11 5 23 23 8 31c-2 1-5 2-7 2c-7 1-14-1-20-3c-11-3-22-6-33-8c-34-6-71 2-98 22c-23 16-41 37-58 59c-10 12-19 26-36 25z m-21-111c-3 0-6 0-8-1c-5 0-11 0-15-3c-9-7 1-20 5-26c14-18 32-32 50-45c50-35 107-56 168-60c18-1 35 0 53 3c6 1 14 2 20 4c17 8 12 39-3 46c-7 4-17-1-24-1c-16-3-32-3-48-3c-42 2-87 15-124 35c-15 8-28 18-40 29c-8 7-16 18-26 21c-2 1-5 1-8 1z m3-95c0 0-1 0-1 0c-7-1-13-4-17-10c-4-3-7-7-8-11c-11-26 17-50 36-62c21-13 43-23 67-31c53-19 115-31 169-14c17 5 33 14 44 26c7 7 12 18 0 22c-8 3-17-4-23-6c-16-7-32-11-48-13c-22-3-42 2-63 7c-18 5-37 9-54 16c-15 5-30 12-43 21c-4 3-8 5-11 9c-11 11-19 25-30 36c-4 5-11 10-18 10z" horiz-adv-x="667" />
<glyph glyph-name="myspace" unicode="&#xe802;" d="m873-107c0 81 0 163 0 244v118c-3 38-9 74-23 104c-28 55-79 95-138 109c-87 21-119-8-187-47c-21 41-62 75-108 83c-65 12-93-9-141-45c-33 31-38 59-97 64c-47 4-85-14-113-50c-15-20-22-54-26-93v-205h195v-94h221v-188h417v0z m-228 911c-194-25-166-324 42-301c189 22 162 327-42 301z m-276-56c-143-21-109-243 37-219c140 22 114 242-37 219z m-216-28c-120-18-93-195 27-179c115 16 94 198-27 179z" horiz-adv-x="913" />
<glyph glyph-name="wkw" unicode="&#xe803;" d="m339 89c10-13 16-16 18-38c1-58-52-92-84-72c-25 14-27 49-11 78c16 29 34 37 77 34v-2z m577 192c-5-8-5-19-29-32c-70-37-136 37-80 84l8 7c16 13 39 19 64 14c32-6 51-38 42-65c-5-15 0 3-5-8z m-826 43c-16 48 44 89 67 67c21-21-18-86-67-67z m265 332c-8 23-2 34 14 45c12 10 26 16 42 13c27-5 11-35-3-48c-15-11-32-18-53-10z m390 42c-2 30 3 51 42 62c47 15 59-3 55-38c-28-22-51-51-97-24z m-663-435c67 0 97 58 120 80l17 13c18 14 30 27 61 35c56 14 94-2 110-45c8-22 7-52 0-75c-11-41-37-70-67-96c-6-5-18-14-24-17c-10-7-18-8-27-15c-70-46-110-156-64-217c91-125 288 78 208 201c-8 13-8 13-15 27c-40 101 64 224 171 229c155 6 117-123 159-174c12-15 27-29 44-37c43-21 91-22 136-6l43 20c15 10 18 12 42 40c56 68 29 200-122 200c-33 0-57-8-81-21c-8-3-11-4-19-8c-2 0-8-3-8-3c-104-43-232 27-166 144c25 45 83 86 137 93c50 6 80 11 115 33c66 40 85 109 40 135c-48 27-62 12-83 9c-13-1-21-5-30-8c-31-11-66-35-85-62c-15-19-16-24-16-58c-3-128-264-201-248-67c6 48 42 63 46 103c7 70-126 41-167-47c-31-65 49-59 56-59c1 0 1 0 3 0l9-2c79-17 40-127-40-179c-108-67-126 12-158 16c-99 15-201-180-97-180v-2z" horiz-adv-x="1061" />
<glyph glyph-name="stayfriends" unicode="&#xe804;" d="m876 638c0-82 10-56 30-78c14-16 17-62 17-87c0-48-144-105-171-119c-24-13-59-48-73-72c-15-24-24-81-24-122c-27 39 0 35-64 74c-103 61-47 86-47 156c0 54 2 63-11 118c-30 124-152 177-219 108c-42-44-94-138-94-212c0-64 68-128-31-187c-19-11-61-40-74-59c-40-58-41-187-41-273h578c19 0 14 22 16 41c2 13 6 41 7 55l8-22c8-30 10-74 26-74h585c18 0 19 30 23 46c5 16 14 41 15 57c12-9 11-21 14-51c2-18-1-52 17-52h592c25 0 11 42 11 95c0 43 1 75-5 113c-6 35-15 62-31 88c-13 19-35 52-52 66c-10 7-24 17-35 22l-97 52c-9 6-10 5-15 16c-13 38 5 47 15 63c26 40 28 13 39 49c15 54 8 74 6 128c-1 25-8 43-20 60c-39 52-68 62-129 62c-85 0-123-55-139-125c-7-30-28-95-2-123c18-20 13-3 25-33c20-47 110-81-62-149c-37-14-92-43-101-83h-7c0 39-8 120-35 146c-9 9-38 30-51 36c-64 34-150 48-161 111c-1 10-7 57 3 76c17 32 33-11 33 86c0 15-5 12-8 27c-8 60 4 145-118 145c-63 0-80-3-114-43c-26-31-18-71-19-99c-1-22-8-18-8-34l-2 1z" horiz-adv-x="2043" />
<glyph glyph-name="studivz" unicode="&#xe805;" d="m566 111c-13 3-39 26-52 36c-15 10-40 29-62 32c6 8 12 14 21 22c14 13 55 50 60 67c28-7 65-34 111-34c-16-25-66-77-77-122l-1-1z m-262 147c45 4 92 15 113 17c1-36 18-62 26-93c-45-4-106-35-135-43c0 33 10 91-4 118v1z m342-25v106c40 9 78 27 113 47c0-40 20-90 38-122c-47 0-122-14-151-30v-1z m-342 29l-45 27c-11 5-43 19-56 20c16 30 47 48 66 73c7 11 14 22 23 28c5-14 0-3 12-14l52-36c-7-26-43-61-51-98h-1z m456 127c-45 31-36 26-89 55c17 25 43 59 51 93c24-16 86-39 122-42c-5-18-30-36-43-50c-16-16-31-36-42-56h1z m-367 68c-29-2-79-33-102-39c0 38-16 66-17 98c46 0 82 17 118 26c0-28-11-63 0-85h1z m182 143c46 0 105 36 130 42c0-53 3-64 13-106c-44 0-79-8-114-17c-2 24-18 60-29 81z m-81-76c-28 6-56 21-89 21c2 7 44 62 63 97c27-6 61-39 98-42v-8c-24-7-58-47-72-68z m-21 134c-47 5-90 43-199 43c-18-77-21-106-12-182c-38-8-77-25-113-40l-107-49c2-20 44-57 61-69l78-57c-7-10-11-13-19-24c-28-37-110-154-113-187c57-6 16-3 64 0l126 17c91 18 34 38 96-176c6-22 10-38 26-48c28 7 83 72 105 94l95 109c42-9 176-93 270-93c0 107 5 154-21 262c38 3 253 81 275 111c-20 30-119 82-159 103c-21 10-42 18-61 28c11 16 21 30 30 47c19 32 42 63 56 100c5 10 24 50 21 56c-12 23-238-41-264-41c-2 29-28 88-43 116c-8 14-16 21-20 35c-31 0-44-14-76-43c-19-18-93-92-99-109l3-3z" horiz-adv-x="1124" />
<glyph glyph-name="jappy" unicode="&#xe806;" d="m484 232c68 0 171-49 171 102v429l175 12c13 1 26 0 38 1l69 6c0-94 3-182 3-279c0-64 10-287 2-336c-22-137-190-181-317-181c-86 0-60-23-103 117c-6 21-12 42-19 65l-19 64z m-18 54c-28 0-63-15-63-51c0-41-1-25 12-64l51-164c5-14 8-27 13-42c23-56 60-49 104-49c161 0 367 43 426 199c24 61 10 222 10 297c0 107-3 208-3 312c0 60 5 99-40 117c-21 8-44 11-66 8l-218-16c-135-1-106-63-106-207c0-50 3-108 0-156c0-14-3-19-3-37c0-13 0-26 0-39c0-66 13-121-41-113c-21 3-50 5-76 5l0 0l0 0z m1006-406l-25 18c-58 34-368 225-399 232c0-30-18-70-32-87c-35-45-35-35-64-60c18 0 53-2 70-5c12-2 28-2 36-4c111-14 186-23 296-55l118-39l0 0z m-1463-24l96 39c36 13 66 23 103 35c36 12 71 21 110 28c40 8 73 15 123 15l-21 63c-5 18-20 48-21 66c-13-1-19-6-28-12c-57-35-116-64-175-104l-165-112c-9-5-18-11-23-19l1 1z" horiz-adv-x="1482" />
<glyph glyph-name="xbox" unicode="&#xe807;" d="m486 469v-5h-5c-1-7 3-3-4-5v-4h-6c-3-5-1-2-3-4c0-1-1-1-1-1l-6-7c-6-5-5-7-12-9l0-5h-4c-2-7 2-4-5-5c-3-7-2-5-8-10c0 0-4-4-4-5c-3-2 0 0-5-2v-6l-5 1c-3-9-12-20-22-22v-5h-4c-2-7 2-3-5-4l0-7l-5 2c-1-6 1-5-4-6c-3-6-6-10-12-13c-1-3 0-2-4-4c-3-6 0-2-4-6l-6-4c-4-7-1-3-9-10l-10-9l-13-19c-4-4 0-1-7-4c0-7-1-4-7-10l-7-10c-3-3-1-1-5-3l-2-8l-3 0v-5h-5c-3-5-2-3-6-7c-3-8 0-1-2-6c-1-1-2-3-2-3c-5-7 0-2-6-6v-5h-5c-1-5 0-3-5-4c-1-13-10-16-16-26v-6l-6 1c-1-9 1-2-3-8c-3-4-2-3-5-5l-11-19c-5-8-3-5-8-13c0-1-3-6-3-6c-3-2 0 0-5-2c-1-18-20-32-23-53l-3 0l-1-11v-5h-3c-2-13-6-15-8-25c-3-10-3-5 1-13c4-8 2-1 6-10h4v-4h5v-5c5-1 3-1 6-3c4-3 3-2 5-4c7-6 3-6 11-9h4l1-5l5 0v-6c5-3 23-16 25-21c12-2 3-3 17-6v-5l5 1v-4l11-4c8-5 8-8 20-9v-5l5 1l5 1v-5l8-2v-4h9h5v-4c10-2 7-3 16-6c5-1 1 1 7-3c7-3 5-3 6-4h2c12-1 8-4 22-5h4v-5l5 1l11-1h6v-4c18 1 17 0 28-3c11-3 71-7 85-7c22 0 34 4 56 5l35 6c1 0 2 1 2 1l13 3h5h5l2 5c12 1 19 4 28 7l26 11v4h7h7v4l9 1l-1 5l5 0l5-1v4c9 1 10 2 16 6c9 6 6 6 15 7v5h5c3 6 10 5 30 22c1 1 1 1 1 1l8 3c1 8-3 2 4 6c2 6-1 3 5 4l0 5h6c5 2 2-1 4 5c2 9-4 4 5 6c3 8-4 4 7 6l5-1v5h5v4h4c2 5 2 6 5 10c3 3 0 0 4 3c3 3 2 1 4 3c-4 8-4 4-8 14c-1 15-1 2-4 10c-2 7-1 8-1 14h-4l-1 10l-5 0l0 6l0 5h-5v6c-3 8-3 7-6 13c-3 7-4 6-6 12h-5l1 6v5c-8 4-1-2-6 8l-15 22c-3 7-8 8-11 18c-5 2-4 0-6 8c-4 3-2 1-4 5c-4 4 0 0-5 5c-2 3-2 3-4 6c-4 6-5 4-9 11c-4 3-2 1-3 6h-4v5c-6 3-1 0-5 5c-3 3 0 1-5 5c-5 5-7 3-7 13h-5v4l-5 0v5c-3 2-2 1-4 3l-17 24h-5v5c-8 2-3-3-6 5l-21 21h-5v5l-11 15l-21 22c-2 2-4 2-5 4c-3 3-2 2-3 7c-9 1-4-1-8 3l-5 1v6l-12 12c-2 3 0 0-2 4l-5 0l0 5l-4 1l1 4c-6 2-7 4-11 8c0 0-4 4-5 4c-3 3-1 0-3 5l-4-1l0 6l-22 21c-7 1-3-2-5 4c-5 1-3 0-4 5h-5l0 5c-7 1-5 1-12 9c-1 1-4 3-4 3c-6-2-2 0-5-3l-13-9l0-1z m-314 210v-6h-4c-3-4-2-2-6-6l-3-3c-6-6-5-9-13-11v-5h-5c-2-8 0-2-3-7l-13-16c-2-3-1-2-3-4c0-1-1-3-2-3c-2-5 0-4-5-6l-1-7h-5l1-4c-2-6-2-4-3-7c-1-2 0 2-2-4c-1-6 0-4-3-7c-3-3-2-1-6-3c-2-4-4-7-6-13c-4-9 0-6-6-9c0-13-2-10-4-14l-23-53l0-13l-5-4l-5-32c-1-11-2-5-4-12c-1-4-1-12-1-17c-1-14-5-17-5-31c-1-11 0-23 0-34c0-11-1-25 0-36l15-90h4c2-26 22-55 22-73l4 1l1-7l-1-3c9-5 2 2 8-9c1-4 2-6 5-10c5-6 8-9 10-19l4 0l1-7c4-3 4-2 6-6c2-3 2-3 3-9c5-2 4-1 10-11l1-2c0 1 0-1 0-2h6c3-14-1-2 6-11h5v-6v-3c10-6 5-13 8-5c0 1 1 0 1 0c0 1 0 1 1 2c0 0 0 1 0 1c0 1 0 3-1 4c0 1-1 4-1 6c-6 28-3 85 6 101l1 13c1 2 3 4 4 6l-1 5l2 11h4l0 4c0 16 17 46 17 60h4l0 8l5 3l-1 4l1 6h4l0 9l4 3c3 9 15 28 18 33v6h5l0 3c3 10 9 15 13 18c1 5 1 6 3 9c6 12 8 16 16 18l0 5c2 5 2 6 6 10c1 1 2 2 2 3c12 14 9 20 18 23v4h4c1 6 0 2 2 7l14 19c3 3 4 4 6 7c2 6-3 3 5 4c2 10 1 3 2 7c1 2 0-2 2 5l-2 5c6 5 5 8 13 7c9 5 3 2 8 8c6 10 1 4 7 7v5l6 0c2 9 11 15 17 21v6l4 1c1 5-1 3 5 4v4h6c1 9 12 19 20 23v4h6l-1 10h-4v6h-4v5h-4v4h-7v4c-4 3-4 2-7 5c-6 5-1-3-6 8c-3 2-2 1-4 5c-8 3-1 0-12 9l-3 2l-5 0v4l-7 5c-11 9-17 10-19 16l-10 2v4l-15 8c-1 1-1 1-2 2s-1 0-1 1c-1 0-1 0-2 1l-6 5l-7 0c-3 4 2 2-3 4l-10 1v4l-12 1v4c-6 0-38 11-49 10c-17 0-32-13-41-14l2 1z m567-1l-1 1v-4l-10-1l-27-18c-6-4 0-2-10-4c-2-5 1-3-5-5v-5h-6c-13-4-20-14-29-20c0-1-2-2-3-2l-40-32c-2-4-1-3-5-6l-5-4c-3-5 0-3-6-3v-12h5v-6c4-2 2-1 5-4c5-3 2-1 4-4c5-6 0-3 7-8h5l-1-6c6-1 7 1 7-10c3-1 3-1 5-3c2-2 3-3 5-6l12-11c0-1 1-2 1-2c3-4 0 0 2-5h5l0-5c7-3 2 1 9-8c15-21 17-16 29-34c8-12 15-16 17-21l2-7h5l1-4c4-9 2-1 5-10c4-2 5-5 12-12c2-3 3-4 5-7c3-4-1 0 4-4l1-8h5v-5l6 1v-6l0-3c4-4 9-11 12-17c3-5 2-3 5-9c4-7 2 3 4-9c7-1 3 2 5-4l-3-2l3-3h4v-6c6-5 11-12 12-20h5v-6v-4c7-2 5-1 6-11l3 1c2-13 12-28 18-43l6-15l-1-3h4l1-13l5-1l-1-6v-10c14-18 15-118 11-130c-3-8-1-3-4-5c0-12 0-4 3-6l5 2c6 11 0 4 7 7l0 5l5 0l6 11c1 0 2 2 3 2c7 9 0 5 8 9c2 9 0 2 3 7c8 16 7 13 11 14c1 5 0 4 3 8c3 7 14 27 19 30l0 4l1 8l4-2l12 37c6 14 9 19 11 35h3l2 20h4l3 26c3 8 1 14 2 22c1 8 4 14 4 22v75c-1 18-6 13-4 46h-5l0 10c0 2 0 8-1 9c-2 9-1 3-3 6c-2 7-2 8-2 15c-6 7-5 6-5 17l-23 56h-3l-1 9l1 3c-5 1-3-1-9 10c-2 5-3 7-6 11c-4 6-10 14-13 22l1 3h-4l-1 7h-4l0 5c-2 3-4 5-6 9c-4 2-3 1-5 4c-5 6-9 11-11 19h-4v5c-5 2-2 0-6 3c-5 4-1 1-3 4c-5 7-5 3-8 9c-5 2-3 0-7 4c-3 2-2 2-4 5c-6 2-4-1-5 5l-20 9c-19 6-32 0-49-7l-10-4c-5-2-3-2-10-3v2z m-325 131v-4l-7 0c-18 1-15-4-32-6l-5 1c-5-7 0-2-7-5h-8v-4c-10 0-13-2-21-5c0 0-5-2-5-2c-8-4-4-4-13-6v-4l-8 0l-6 0v-5l-9-1c-2-6 0-4-10-5c-5-12-4 3-18-15c14 0 20 4 40 3l3-5h6l9 1l6 0v-6l4 1l11-2l-3-1c9-2 13-4 19-7c8-4 8-4 16-7h6v-6l3 1l6 0l-1-5l7-1v-4h3c9-2 3-1 7-3c0 0 0-7 2-1c0 0 1-1 1-1h7l1-4c9-5 11-9 21-12l6 0v-5l5-2l-1-4l26-17h6l0-4l12-5c11-7 6-10 30 6c4 3 0 0 5 3v5h5l25 17l1 5h7c4 2 6 2 10 5c7 3 5 3 10 6v5h6c7 3 5 4 15 5l2 5h6c4 5 11 6 16 9c7 3 10 6 19 8v5l7-1l8 1v4l6 0l12 0v5l21 1l31-1h6c-4 7 0 2-4 6c-3 3-1 1-5 3c-7 4-5 0-9 7l-4 1c-6 1-4-1-5 4l-5 0l-4-1v5c-10 1-5 0-14 5l-44 17l-10 1l-4 4l-4-1l-13 2v4c-14 0-16 2-26 4c-8 2-17 1-25 3c-34 7-66 4-102 3c-19 0-11-5-48-5l-1 2z" horiz-adv-x="1006" />
<glyph glyph-name="netlog" unicode="&#xe808;" d="m369 278c0 275 396 253 396 17c0-223-287-276-372-93c-5 10-22 68-22 76h-2z m-329 17c0-176 93-340 198-410c25 17 40 38 63 59c113 109 319 139 457 58c41-24 117-72 130-117c85 23 206 238 206 387c0 315-238 542-525 542c-287 0-525-232-525-519h-4z" horiz-adv-x="1136" />
<glyph glyph-name="lokalisten" unicode="&#xe809;" d="m35 353c0-72 18-143 42-195c49-105 127-183 231-233c118-56 277-55 393 2c43 22 115 66 140 104c-97 0-199-2-295 4c-48 2-84 14-117 32c-29 15-60 50-60 92v380c0 35 37 28 68 28c38 0 28-52 28-87v-286c0-24 0-35 10-49c27-36 136-29 201-29c79 0 148-4 228-4c35 52 65 148 65 237c0 141-64 257-135 327c-21 20-38 36-63 53c-25 18-46 30-75 43c-56 27-117 41-177 42h-24c-105-2-209-41-292-108l-24-23c0-1 0-1-1-2s-1-1-2-1c-85-82-141-206-141-330v3z" horiz-adv-x="1003" />
<glyph glyph-name="psn" unicode="&#xe80a;" d="m503-56l193-58v591c0 38-13 184 18 184c68 0 53-88 53-154c0-71 0-140 0-211c28-6 54-24 91-24c73 0 130 74 130 149v71c0 122-88 195-174 231c-96 39-203 67-311 91v-868v-2z m234 258v-116c90 21 277 126 337 62c-15-24-135-62-167-73c-28-9-58-20-88-32c-15-5-28-11-43-15c-49-15-37 0-37-125c28 0 372 127 406 140c37 15 146 58 88 122c-8 7-19 15-28 21c-19 9-45 18-70 26c-110 35-305 35-396-13l-2 3z m-691-104c0-79 230-105 294-105c37 0 77 9 110 9v101c-39-9-61-26-104-33c-38-8-81-12-116 5c2 32 56 41 104 58c139 51 116 11 116 154c-24 0-187-60-220-73c-47-19-184-58-184-115v-1z" horiz-adv-x="1297" />
<glyph glyph-name="wiiu" unicode="&#xe80b;" d="m568 158c-16 13-9 4-14 30l-134 525h-177c16-71 38-140 59-212c21-72 39-138 58-210c16-57 67-261 97-304c27-37 57-49 104-49c108 0 126 139 150 228c14 49 29 98 41 146l51 152c0-25 111-415 120-440c20-53 60-81 103-86h28c32 3 62 21 85 49c38 51 135 433 157 514c17 72 42 139 58 210h-177l-143-554c0 1-1 5-1 3l-2 4l-41 146c-16 53-28 106-42 161c-32 131-42 245-155 245c-108 0-117-141-145-245c-9-28-80-290-80-316l0 3l0 0z m1587 495v-373c0-107 80-153 182-153h484c88 0 169 42 169 127v401c0 120-121 98-203 98v-312c0-117-90-187-187-187c-77 0-129 0-185 56c-39 39-51 78-51 152v297h-64c-69-2-145-18-145-104l0-2l0 0z m-718-708h169v531h-169v-531z m335 0h170v531h-170v-531z m691 515c0-159 226-166 226 0v281c0 12-4 16-16 16h-209v-297h-1z m-945 297c-131 0-127-192 5-189c133 4 126 189-5 189z m237-94c0-114 197-143 197 11c0 101-197 115-197-11z" horiz-adv-x="3358" />
<glyph glyph-name="twitch" unicode="&#xe80c;" d="m94 812c-1-3-38-101-40-104c-1-3-5-13-13-37c-3-7-5-14-6-15c-1-2-1-128-1-326l0-322l111 0l111 0v-3c0-2 0-30 0-61v-57h60h61l60 60l61 61l91 0l91 1l121 120l121 121l-1 281c0 154 0 281 0 282c0 1-108 2-413 2c-381 0-414-1-414-3z m744-79h3v-221v-222l-71-70l-71-71h-110h-111l-61-60l-60-61l0 59c0 33 0 60 0 61c-1 1-29 1-90 1c-79 0-90 0-91 2c-1 2-1 572 0 581c0 0 1 1 2 2c2 0 639 0 660-1z m-437-161l-4-1v-120l0-120h40h41v121v121h-37c-20 0-38-1-40-1z m220 0c-2 0-2-9-2-121v-120h40h40l0 119c0 66 0 121-1 121c-1 1-72 2-77 1z" horiz-adv-x="957" />
<glyph glyph-name="raptr" unicode="&#xe80d;" d="m262 805c-55-17-90-40-128-88c-50-62-77-161-61-230c5-24 19-141 20-167l0-22l-33-9l-33-9v-29c0-32 4-53 11-53c3 0 4 7 4 15c0 31 3 34 34 34c19 0 28-2 28-5c0-3-8-18-18-34c-16-24-19-32-21-56c-1-16 0-28 1-28c1 0 8 11 14 24c15 35 42 55 42 32c0-17 27-92 45-123c9-16 25-39 36-52c20-22 22-31 8-31c-12 0-50-20-66-33c-15-13-39-50-35-54c1-1 7 1 13 5c8 6 29 7 155 7h146l40 26c73 48 138 114 189 190c26 39 71 126 67 130c-1 1-11-6-24-17c-60-50-132-87-172-87c-18 0-21 2-45 27c-35 38-63 59-135 95l-61 32l-9 27l-9 27l-40 16c-67 28-81 39-81 67c0 11 1 13 5 8c4-3 9-10 11-16c7-11 66-40 113-55c43-15 118-25 173-25c110 0 192 40 227 113c13 26 14 30 12 63c-4 58-39 120-103 180c-56 52-118 86-192 105c-51 13-85 13-128 0z m166-47c78-24 127-81 128-148c0-26-3-34-14-54c-23-44-69-67-131-67c-118 0-210 94-183 188c9 33 47 69 84 81c37 11 78 11 116 0z m-15-49c-25-28-61-133-49-147c3-3 8-5 11-4c9 4 33 43 45 76c25 66 21 104-7 75z" horiz-adv-x="747" />
<glyph glyph-name="xfire" unicode="&#xe80e;" d="m1185 608c-100-9-209-6-310-5c-45 1-47-19-93-64l-83-77c-46 31-98 96-148 135c-14 12-14 9-29 7c-73-5-201-2-282-1c-21 0-22 5-39 5c5-20 19-22 32-33c11-8 3-5 16-15l92-72c7-7 8-9 16-15l131-103c-3-5-29-28-36-34c-7-6-12-8-20-14s-14-11-22-17l-100-80c-34-23-113-100-145-108c-5 10-13 21-17 32c-30 90-4 181 46 256c4 7 6 11 9 18c-18-2-15-8-27-23l-63-90c-33-53-56-112-64-174v-69l0 0c3-24 20-52 33-72c53-81 156-100 247-109c20-2 21 1 47 1c64 0 127 13 182 25c39 9 76 24 113 37c6 2 13 3 20 6l71 32c7 2 13 3 20 7c12 6 20 14 32 19c21 9 20 2 32 20c-23-2-54-21-82-29c-45-14-85-28-132-33c-20-2-25-7-50-7c-50 0-102-6-154 3c-72 12-144 33-201 79l-42 42c-8 10-8 5-13 18c30 15 274-3 334 4c17 2 34 24 49 36l138 118l66-60c21-21 47-38 69-57c14-13 26-33 49-36c50-5 272 0 340 0c-8 22-40 33-56 47l-70 58c-1 0-2 1-2 2c-2 1-4 3-7 5c-23 17-167 127-180 146c7 9 26 20 36 29l150 126c1 1 1 1 2 2l84 66c11 8 13 8 9 18l2-2z m3 3l20-34c47-83 21-198-28-272c-7-12-8-6-11-20c19 2 26 21 47 48c16 20 27 38 40 60c32 52 56 113 62 172v55c-5 49-26 93-71 130c-18 15-41 27-63 36c-9 5-23 10-34 13c-23 7-64 12-106 14h-102c-9-1-17-1-23-3l-121-25c-90-19-236-91-253-95v-11c25 6 68 25 116 36c19 4 25 7 43 11c12 3 33 4 44 7c98 23 263 6 352-48c6-4 10-6 16-10l16-11c15-9 44-37 54-52l2-1z" horiz-adv-x="1367" />
<glyph glyph-name="home" unicode="&#x2302;" d="m786 296v-267q0-15-11-26t-25-10h-214v214h-143v-214h-214q-15 0-25 10t-11 26v267q0 1 0 2t0 2l321 264l321-264q1-1 1-4z m124 39l-34-41q-5-5-12-6h-2q-7 0-12 3l-386 322l-386-322q-7-4-13-4q-7 2-12 7l-35 41q-4 5-3 13t6 12l401 334q18 15 42 15t43-15l136-114v109q0 8 5 13t13 5h107q8 0 13-5t5-13v-227l122-102q5-5 6-12t-4-13z" horiz-adv-x="928.6" />
<glyph glyph-name="cog-alt" unicode="&#x26ef;" d="m500 350q0 59-42 101t-101 42t-101-42t-42-101t42-101t101-42t101 42t42 101z m429-286q0 29-22 51t-50 21t-50-21t-21-51q0-29 21-50t50-21t51 21t21 50z m0 572q0 29-22 50t-50 21t-50-21t-21-50q0-30 21-51t50-21t51 21t21 51z m-215-235v-103q0-6-4-11t-9-6l-86-14q-6-19-18-42q19-27 50-64q4-6 4-11q0-7-4-11q-13-17-46-50t-44-33q-6 0-11 4l-64 50q-21-11-43-17q-6-60-13-87q-4-13-17-13h-104q-6 0-11 4t-5 10l-13 85q-19 6-42 18l-66-50q-4-4-11-4q-6 0-12 4q-80 75-80 90q0 5 4 10q5 8 23 30t26 34q-13 24-20 46l-85 13q-5 1-9 5t-4 11v103q0 6 4 11t9 6l86 14q7 19 18 42q-19 27-50 64q-4 6-4 11q0 7 4 11q12 17 46 50t44 33q6 0 12-4l64-50q19 10 43 18q6 60 13 86q3 13 16 13h104q6 0 11-4t6-10l13-85q19-6 41-17l66 49q5 4 11 4q7 0 12-4q81-75 81-90q0-5-4-10q-7-9-24-30t-25-34q13-27 19-46l85-12q5-2 9-6t4-11z m357-298v-78q0-9-83-17q-6-15-16-29q28-63 28-77q0-2-2-4q-68-40-69-40q-5 0-26 27t-29 37q-11-1-17-1t-17 1q-7-11-29-37t-25-27q-1 0-69 40q-3 2-3 4q0 14 29 77q-10 14-17 29q-83 8-83 17v78q0 9 83 18q7 16 17 29q-29 63-29 77q0 2 3 4q2 1 19 11t33 19t17 9q4 0 25-26t29-38q12 1 17 1t17-1q28 40 51 63l4 1q2 0 69-39q2-2 2-4q0-14-28-77q9-13 16-29q83-9 83-18z m0 572v-78q0-9-83-18q-6-15-16-29q28-63 28-77q0-2-2-4q-68-39-69-39q-5 0-26 26t-29 38q-11-1-17-1t-17 1q-7-12-29-38t-25-26q-1 0-69 39q-3 2-3 4q0 14 29 77q-10 14-17 29q-83 9-83 18v78q0 9 83 17q7 16 17 29q-29 63-29 77q0 2 3 4q2 1 19 11t33 19t17 9q4 0 25-26t29-38q12 2 17 2t17-2q28 40 51 63l4 1q2 0 69-39q2-2 2-4q0-14-28-77q9-13 16-29q83-8 83-17z" horiz-adv-x="1071.4" />
<glyph glyph-name="trillian" unicode="&#xe800;" d="m652 350c183 46 193-209 40-113c-50 32-44 59-40 113z m-109-88v-39c0-160 366-227 310 30c66-52 88-244-128-244c-139 0-255 103-255 253v58l91 25c-8-30-19-41-19-83h1z m-228 458c0 77 155 50 155-68c0-49-155-49-155 68z m-92 48c-39-63-66-129 35-216c67-59 146-71 220-17c-4-44-30-103-37-117c-299 0-414 302-219 350h1z m0 0l19 12l-19-12z m-200-155c0-178 216-288 392-293l-27-11c0-154 4-220 78-305c170-195 497-155 497 101c0 117-71 202-143 246c-87 54-179 66-312 66c81 180 42 409-238 409c-138 0-246-68-246-214l-1 1z" horiz-adv-x="988" />
<glyph glyph-name="gplus" unicode="&#xf0d5;" d="m489 33q0 11-3 22t-5 20t-10 19t-11 17t-15 17t-16 14t-17 14t-18 13t-18 13t-17 12q-10 1-28 1q-30 0-59-4t-60-14t-55-26t-39-41t-15-60q0-38 20-68t52-47t67-25t71-9q33 0 63 7t56 22t42 41t15 62z m-67 481q0 33-9 71t-27 72t-46 59t-67 22q-52 0-80-38t-29-92q0-26 7-55t19-58t32-53t43-37t54-15q54 0 79 34t24 90z m-73 265h244l-76-45h-75q40-25 61-70t22-94q0-41-13-74t-31-51t-37-36t-31-34t-13-38q0-14 9-28t24-27t33-27t36-31t32-37t24-47t10-60q0-89-79-157q-84-73-234-73q-33 0-67 6t-68 18t-60 33t-43 49t-17 68q0 34 21 75q18 36 53 62t81 40t87 20t83 7q-35 47-35 83q0 7 1 14t3 10t4 12t4 12q-22-2-39-2q-83 0-143 54t-59 138q0 78 53 139t130 79q53 11 105 11z m580-143v-72h-143v-143h-72v143h-143v72h143v143h72v-143h143z" horiz-adv-x="928.6" />
<glyph glyph-name="linkedin" unicode="&#xf0e1;" d="m195 501v-553h-184v553h184z m12 171q0-41-29-68t-75-27h-1q-46 0-74 27t-28 68q0 41 29 68t75 27t74-27t29-68z m650-407v-317h-183v296q0 59-23 92t-71 33q-35 0-58-19t-36-48q-6-17-6-45v-309h-184q1 223 1 361t0 165l-1 27h184v-80h-1q11 18 23 31t31 29t49 24t64 9q95 0 153-63t58-186z" horiz-adv-x="857.1" />
<glyph glyph-name="skype" unicode="&#xf17e;" d="m655 257q0 28-11 51t-27 38t-41 27t-46 19t-49 13l-58 14q-17 4-25 6t-19 6t-17 9t-9 12t-4 16q0 43 80 43q24 0 43-6t30-16t21-19t23-16t27-7q26 0 42 18t16 43q0 31-32 55t-79 38t-101 13q-38 0-74-9t-67-26t-49-48t-19-72q0-34 10-60t32-42t44-27t58-18l81-20q51-12 63-20q18-11 18-34q0-21-23-36t-58-14q-29 0-51 9t-37 22t-25 25t-26 21t-30 9q-28 0-42-17t-14-41q0-52 68-88t162-37q41 0 78 10t69 30t49 52t19 74z m202-121q0-89-63-152t-151-63q-73 0-131 45q-43-9-83-9q-80 0-153 31t-126 84t-83 125t-31 153q0 41 9 84q-45 58-45 130q0 89 63 152t151 63q73 0 131-45q43 9 84 9q79 0 152-31t126-84t83-125t31-153q0-41-9-84q45-58 45-130z" horiz-adv-x="857.1" />
<glyph glyph-name="twitter" unicode="&#xf099;" d="m904 622q-37-54-90-93q0-8 0-23q0-73-21-145t-64-139t-103-117t-144-82t-181-30q-151 0-276 81q19-3 43-3q126 0 224 77q-59 2-105 36t-64 89q19-2 34-2q24 0 48 6q-63 13-104 62t-41 115v2q38-21 82-23q-37 25-59 64t-22 86q0 49 25 91q68-83 164-133t208-55q-5 21-5 41q0 75 53 127t127 53q79 0 132-57q61 12 114 44q-20-64-79-100q52 6 104 28z" horiz-adv-x="928.6" />
<glyph glyph-name="xing" unicode="&#xf168;" d="m333 478q-5-10-143-255q-15-25-37-25h-133q-12 0-17 9t0 20l141 250q1 0 0 1l-90 155q-7 13 0 21q5 8 17 8h134q22 0 37-25z m450 358q6-9 0-21l-295-521v0l188-344q6-11 0-20q-5-9-18-9h-133q-23 0-37 25l-189 348q10 18 296 525q14 25 36 25h135q12 0 17-8z" horiz-adv-x="785.7" />
<glyph glyph-name="youtube" unicode="&#xf167;" d="m542 156v-118q0-37-22-37q-13 0-25 12v168q12 12 25 12q22 0 22-37z m188-1v-25h-50v25q0 38 25 38t25-38z m-539 122h60v52h-174v-52h59v-318h55v318z m161-318h50v276h-50v-211q-17-23-32-23q-10 0-11 11q-1 2-1 20v203h-50v-218q0-28 5-41q7-21 32-21q27 0 57 34v-30z m240 83v110q0 41-5 55q-10 31-40 31q-28 0-52-30v121h-50v-370h50v27q25-31 52-31q30 0 40 31q5 15 5 56z m188 6v7h-51q0-29-1-34q-4-20-22-20q-26 0-26 38v49h100v57q0 44-15 65q-22 28-59 28q-38 0-60-28q-15-21-15-65v-96q0-44 16-65q22-29 60-29q40 0 60 30q10 15 12 30q1 5 1 33z m-339 509v117q0 39-24 39t-24-39v-117q0-39 24-39t24 39z m401-419q0-131-14-195q-8-33-33-56t-57-25q-102-12-309-12t-310 12q-32 3-57 25t-32 56q-15 62-15 195q0 131 15 195q7 33 32 56t57 26q103 11 310 11t309-11q33-4 57-26t33-56q14-62 14-195z m-557 712h57l-67-223v-151h-56v151q-8 42-34 119q-21 57-37 104h60l39-147z m207-186v-97q0-46-16-66q-21-29-59-29q-38 0-59 29q-15 21-15 66v97q0 45 15 65q21 29 59 29q38 0 59-29q16-20 16-65z m187 91v-279h-51v31q-30-35-58-35q-25 0-33 21q-4 13-4 42v220h51v-205q0-19 0-20q2-12 12-12q15 0 32 24v213h51z" horiz-adv-x="857.1" />
<glyph glyph-name="pinterest" unicode="&#xf312;" d="m320 190q-26-130-58-211t-96-129q-6 74-7 120t11 110t22 104t26 99t24 99q-24 52-19 116t48 106t99 20q40-16 44-59t-13-95t-32-103t-4-90t63-49q68-14 121 38t74 131t11 163t-54 128q-62 64-151 70t-163-33t-120-117t-32-170q4-22 22-52t21-47t-17-67q-146 34-140 230q4 138 105 234t233 112q164 18 290-57t144-219q26-176-66-317t-252-129q-22 2-42 9t-30 13t-31 21t-31 21z" horiz-adv-x="778" />
<glyph glyph-name="picasa" unicode="&#xf345;" d="m250 760q10-12 158-144l-396-362q-12 48-12 96q0 130 67 240t183 170z m400 10l0-278l-328 296q64 22 138 22q98 0 190-40z m70-40q94-64 147-165t53-215q0-80-26-152l-174 0l0 532z m-686-550q12 12 66 60l102 92l0-362q-116 80-168 210z m238-250l0 198l590 0q-56-100-151-163t-209-75l-84 0q-84 10-146 40z" horiz-adv-x="920" />
<glyph glyph-name="aim" unicode="&#x22;" d="m0 432q0 105 53 188t136 132t181 73t194 25q29 0 43-1q115-6 226-41q87-28 166-74t147-109t108-147t40-176q0-13-1-19q-11-152-120-256t-269-147q-107-30-229-30l-8 0q-201 0-315 53q-6 2-7 6q0 2 3 2q1 0 4-1t3 0q50-12 89-12q24 0 47 4t44 20t20 40q0 12-6 24q-9 16-58 34t-114 33t-76 20q-80 26-139 66q0 1 4 10t6 14t7 12t8 6l179 0q9 0 17-21t21-44t35-22q18 0 31 12t13 29q0 11-84 199t-106 231q-6 15-16 15q-8 0-13-9l-3-6q-8-15-52-114l-107-238l-7-15q-95 109-95 234z m218-166q0 10 54 129l5 3q6 0 33-63t26-70q0-4-5-4l-108 0q-5 0-5 5z m307-123q0-45 47-45t47 45l0 388q0 45-47 45t-47-45l0-388z m185 0q0-45 47-45t47 45l0 181l92-185q13-29 41-29q32 0 46 29l91 185l0-181q0-45 47-45q48 0 48 45l0 388q0 45-47 45q-35 0-47-29l-138-302l-133 302q-14 29-48 29q-46 0-46-45l0-388z" horiz-adv-x="1294" />
<glyph glyph-name="blogger" unicode="&#x42;" d="m0 165l0 369q0 130 93 223t223 93l221 0q65-8 139-57t104-115q1-2 5-9t5-10t4-10t4-12t3-16t4-22t4-29q9-70 26-85q14-13 71-14t65-8l14-11l8-17l3-14l-2-256q-1-130-93-223t-222-92l-363 0q-130 0-223 92t-93 223z m259 5q0-25 18-42t43-18l356 0q25 0 43 18t17 42t-17 43t-43 17l-356 0q-25 0-43-17t-18-43z m0 362q0-25 18-43t43-18l175 0q25 0 43 18t17 43t-17 43t-43 17l-175 0q-25 0-43-17t-18-43z" horiz-adv-x="996" />
<glyph glyph-name="vimeo" unicode="&#x56;" d="m0 578q55 65 110 116t96 78t72 43t48 21l17 4q12 2 24 2q19 0 35-6q26-10 43-34t29-55t21-72t15-78t14-79t14-71q32-125 52-177t41-53q24 0 67 56t93 151q26 48 26 91q0 13-2 23q-9 52-51 65q-11 4-24 4q-35 0-83-26q22 130 134 209q85 60 174 60q12 0 24-1q102-8 139-90q18-38 18-88q0-29-6-61q-18-102-69-208t-113-187t-133-155t-123-118t-91-68q-42-24-78-24t-70 21t-56 48t-38 57q-18 38-97 299t-97 280q-1 2-4 4t-13 5t-24 0t-37-14t-50-33z" horiz-adv-x="1146" />
<glyph glyph-name="yahoo" unicode="&#x59;" d="m0 641l6-19q4-6 8-10t5-5l2-2l19-10l111 0l287-344q11-12 11-25l0-192q0-8-2-12t-6-5l-3 0q-112 0-142-3q-10 0-10-9l0-55l516 0l0 57q0 3-2 5t-5 2l-146 0q-9 0-9 15l0 202q-1 3 2 7t5 7l3 3q11 11 264 249l133 0q9 0 18 7l17 19q6 7 6 18l0 14q-1 3-3 5t-3 1l-438 0l-7-6q-1-6 2-12t5-10l2-4l23-23l18-7l115 0l-207-195l-228 291l41 0q13-1 22 4l68 21q1 0 3 1t5 5t2 9l0 14q0 3-2 5t-4 2l-492 0q-8-1-10-7l0-8z m1190 109l185-7l-83-567l-61 3z m13-763l4 110l110-4l-4-110z" horiz-adv-x="1375" />
<glyph glyph-name="amazon" unicode="&#x61;" d="m2 74q5 8 16 1q250-145 544-145q196 0 387 73q5 2 15 6t13 6q15 6 24-6t-6-22q-18-13-46-30q-86-51-192-79t-207-28q-156 0-295 54t-249 154q-6 5-6 10q0 3 2 6z m301 285q0 69 34 118t93 74q54 23 133 33q27 3 88 8l0 17q0 64-14 86q-21 30-66 30l-8 0q-33-3-57-21t-31-50q-4-20-20-23l-115 14q-17 4-17 18q0 3 1 7q17 89 84 132t155 48l25 0q114 0 178-59q10-10 19-21t13-21t9-26t6-23t3-28t1-26l0-242q0-26 8-47t14-31t23-31q6-9 6-16q0-8-8-14q-83-72-90-78q-12-9-29-2q-14 12-24 23t-15 16t-15 20t-14 19q-56-61-110-76q-34-10-84-10q-77 0-126 48t-50 134z m172 20q0-39 20-62t52-24q3 0 9 1t7 1q42 11 65 54q11 19 17 42t6 36t0 46l0 25q-58 0-88-8q-88-25-88-111z m420-322q2 4 6 8q25 17 48 23q38 10 74 11q10 1 19-1q45-4 54-15q4-6 4-18l0-7q0-35-19-83t-53-76q-5-4-9-4q-2 0-4 1q-6 3-3 11q37 87 37 121q0 11-4 16q-10 12-56 12q-17 0-40-2q-25-3-46-6q-6 0-8 2t-1 4q0 1 1 3z" horiz-adv-x="1100" />
<glyph glyph-name="steam" unicode="&#x62;" d="m0 470q0 55 39 94t93 39q47 0 84-29t46-75l502-202q32 19 68 19q2 0 7 0t7-1l110 159q1 73 53 125t125 51q74 0 126-52t52-126t-52-126t-126-52l-170-124q-5-51-43-85t-89-35q-48 0-84 30t-46 75l-502 201q-32-19-68-19q-55 0-93 39t-39 94z m35 0q0-40 29-68t68-29q9 0 21 2l-41 16l0 1q-28 13-40 42q-6 14-6 28q0 15 6 30q12 30 40 42q15 7 31 6q13 0 27-5l0 1l49-20q-29 52-87 52q-40 0-68-28t-29-70z m710-333q29-52 87-52q40 0 69 29t29 69q0 40-28 69t-70 28q-14 0-21-2l40-16q30-12 43-42q7-15 7-30q0-14-6-29q-12-31-42-43q-15-6-30-6q-14 0-29 6q-8 3-24 10t-25 9z m270 335q0-49 35-84t84-35q50 0 85 35t35 84t-35 84t-85 35q-49 0-84-35t-35-84z m25 1q0-40 28-68t67-28q39 0 67 28t28 68q0 39-28 67t-67 28q-40 0-67-28t-28-67z" horiz-adv-x="1312" />
<glyph glyph-name="ebay" unicode="&#x65;" d="m0 285q0 31 5 54t22 46t46 39t84 24t128 9q88 0 148-13q39-8 58-18l0-161l-293 0q0-21 2-33t9-31t27-27t49-9q85 0 85 61l121 0l0-89q-27-13-56-19q-68-15-150-15q-92 0-151 13t-87 39t-37 56t-10 74z m198 34l178 0q0 18-1 27t-9 23t-27 22t-54 7q-31 0-50-7t-27-23t-8-24t-2-25z m293-182l0 89l78 0q-1-51-74-87q-2-2-4-2z m0 0q2 0 4 2q73 36 74 87l-78 0l0 39l81 0q1 12 1 23q0 45-13 76q-16 39-69 62l0 183l107 0l0-203l2 0q31 44 88 44q43 0 69-26q-40-29-40-102q0-104 76-122q-1-31-5-54t-16-47t-32-36t-54-13q-64 0-91 50l-1 0l0-42l-103 0l0 79z m0 128l0 161q53-23 69-62q13-31 13-76q0-11-1-23l-81 0z m107-11q0-77 9-107t35-31q28 0 37 31t9 107l0 5q0 35-1 52t-5 37t-13 28t-27 8q-16 0-25-8t-13-30t-5-38t-1-54z m119 68q0 73 40 102q17-18 26-53t10-55t0-64l0-52q-76 18-76 122z m8 159q0 69 40 94q34 26 101 26q4 0 49-3l107-218l0-102q0-14 2-39t2-34l-100 0l-5 52l-2 0q-33-58-100-58q-18 0-26 1l0 52q0 43 0 64t-10 55t-26 53q38 29 135 29l24 0l0 31q0 29-8 43t-36 14q-26 0-33-15t-7-45l-107 0z m97-154q0-62 41-62q13 0 23 5t15 14t10 18t4 24t2 23t0 24t-1 20q-4 0-17 0t-16-1l-14-2t-14-3t-11-5t-9-8t-7-11t-5-16t-1-20z m67 323l154 0l100-232l109 232l143 0l-189-359l0-190l-141 0l0 190l-43 89l0 91q0 55-21 87t-86 40z m26-52q64-9 86-40t21-87l0-91z" horiz-adv-x="1395" />
<glyph glyph-name="icq" unicode="&#xf304;" d="m355 823c-31 7-57 4-84-10c-29-18-46-47-53-86c-7-41 0-80 21-120l10-14l-34 11c-42 10-82 4-121-17c-41-21-66-50-83-91c-16-40-15-78 5-113c9-16 21-28 33-37c17-17 38-27 63-31l10-3l-21-18c-20-17-31-38-38-59c-7-26-4-51 10-75c7-11 14-21 25-28c11-10 25-17 42-18c31-7 64-7 99 4l-25-42l-7-19c-15-45-10-84 11-125c10-16 21-30 32-43c17-15 38-25 64-32c42-11 84-10 125 11c40 21 65 55 78 98l1 8c27-30 52-49 80-56c29-9 57-7 82 10c24 14 41 38 50 67c7 31 7 62 0 97c14-9 28-16 45-21c45-14 84-12 124 9c38 21 63 55 76 99c11 42 8 83-13 122l-7 11c-11 17-22 34-39 46c-14 9-31 16-47 24c44 21 75 50 89 88c10 31 7 57-7 82l0 3c-17 28-40 46-75 56c-21 5-45 5-66 3l-47-10l16 36c14 45 10 88-14 129l-4 7c-22 36-53 57-95 68c-44 11-84 7-124-14c-39-21-68-54-80-96l0-3l-2-10l-5 10l-14 26c-23 35-51 56-86 66z m359-85c7-14 11-31 11-49l-4-31c-5-16-13-30-21-42l-127-156c-13 10-27 17-41 24l-14 160l-1 56l1 14c7 28 27 50 52 64c26 14 54 17 81 7c29-7 50-23 63-47z m-437-28c1 25 11 42 28 52c9 7 21 7 33 2c25-8 46-26 63-61c7-14 14-28 17-45l28-167l-21-7l-125 137l-7 14c-12 26-19 50-16 75z m-76-165l38-15l124-91c-11-14-18-28-22-42l-204-25l-14 2c-25 5-42 16-53 37c-11 21-11 42-3 64c10 26 28 47 55 59c25 14 51 18 79 11z m134-230l10-28l4-10c-21-18-37-35-54-51l-42-35l-11-7c-27-13-50-17-74-14c-21 1-38 8-45 21l-4 16l3 12c7 21 25 43 58 58c17 7 31 14 42 17l113 21z m440 229c25 11 49 14 74 11c24-3 41-14 50-31l5-18l-2-15c-10-25-31-45-67-60c-14-7-29-10-46-13l-174-21l-2 10l-3 4l5 7l143 119l17 7z m-360-134c17 15 40 25 66 25c26 0 50-10 65-25c20-20 29-41 29-67s-9-49-29-66c-18-18-39-28-65-28c-26 0-49 10-66 28c-18 17-28 41-28 66s10 47 28 67z m33-205c2-48 7-98 14-153l0-57l-2-14c-10-25-26-46-52-58c-25-14-52-17-77-10c-29 7-50 24-61 47c-7 14-13 31-13 48l7 32c3 14 10 28 22 40l118 141c14-7 28-14 44-16z m108 19l59-61l37-45l7-14c13-24 20-47 17-74c-3-25-11-43-28-50c-10-7-21-7-33-6c-26 7-48 28-63 62l-17 47l-21 122l24 9l18 10z m64 87l159 14l56 1l14-1c22-7 41-20 53-41c14-15 21-36 21-60l-4-29c-7-28-24-49-48-60c-26-14-51-17-79-7c-17 4-29 11-38 22l-148 123l9 21l5 17z" horiz-adv-x="981" />
<glyph glyph-name="facebook" unicode="&#xf09a;" d="m285 540h144l-17-159h-127v-460h-190v460h-95v159h95v95q0 102 48 154t158 52h126v-158h-79q-22 0-35-4t-19-13t-7-19t-2-28v-79z" horiz-adv-x="428.6" />
</font>
</defs>
</svg>
